Ковбои против пришельцев / Cowboys & Aliens (Джон Фавро / Jon Favreau) [2011, США, Фантастика, триллер, вестерн, BDRip-AVC] Dub Театральная версия

Ответить на тему
 
Автор Сообщение

user ®

Стаж: 7 лет 7 месяцев

Сообщений: 20008

Пост Пост: #1 от 23-Авг-2012 09:48

[Цитировать]

Ковбои против пришельцев / Cowboys & Aliens
Театральная версия
Страна: США
Жанр: Фантастика, боевик, триллер, вестерн
Год выпуска: 2011
Продолжительность: 01:58:15
Перевод: Профессинальный (дублированный)
Cубтитры: нет
Режиссер: Джон Фавро / Jon Favreau
В ролях: Дэниэл Крэйг, Харрисон Форд, Оливия Уайлд, Сэм Рокуэлл, Ноа Рингер, Пол Дано, Адам Бич, Ана Де Ла Регуера, Клэнси Браун, Кит Кэррадайн
Описание: 1873, Абсолюшен, штат Аризона. В эту глухую американскую провинцию прибывает потерявший память незнакомец. Единственный намек на его прошлое — это странные кандалы на одном из его запястий. Странник быстро узнает, что жители городка не рады незнакомцам, да и вообще они выходят на улицы лишь по приказу полковника Долархайда, правящего в этой местности железной рукой.

СЭМПЛ
Качество видео: BDRip-AVC (Исх. BDRemux)
Формат видео: MKV
Видео:1056x440 (2.40:1), 23.976 fps, AVC, ~1377 kbps, 0.124 bits/pixel
Аудио:48.0 KHz, AC3, 6 ch, 384 kbps

MediaInfo

General
Unique ID : 204827425913667070502019594383529455601 (0x9A1853C9ECEF058A877D81AE2EB5AFF1)
Complete name : D:\Cowboy & Alien.chopper887.mkv
Format : Matroska
File size : 1.46 GiB
Duration : 1h 58mn
Overall bit rate : 1 762 Kbps
Movie name : Cowboy & Alien.chopper887
Encoded date : UTC 2011-12-11 17:46:32
Writing application : mkvmerge v4.8.0 ('I Got The...') built on May 24 2011 03:12:58
Writing library : libebml v1.2.0 + libmatroska v1.1.0
Video
ID : 1
Format : AVC
Format/Info : Advanced Video Codec
Format profile : High@L4.1
Format settings, CABAC : Yes
Format settings, ReFrames : 10 frames
Codec ID : V_MPEG4/ISO/AVC
Duration : 1h 58mn
Bit rate : 1 377 Kbps
Width : 1 056 pixels
Height : 440 pixels
Display aspect ratio : 2.40:1
Frame rate : 23.976 fps
Color space : YUV
Chroma subsampling : 4:2:0
Bit depth : 8 bits
Scan type : Progressive
Bits/(Pixel*Frame) : 0.124
Stream size : 1.11 GiB (76%)
Title : Cowboy & Alien.chopper887
Writing library : x264 core 116 r2074 2641b9e
Encoding settings : cabac=1 / ref=10 / deblock=1:-2:-1 / analyse=0x3:0x133 / me=umh / subme=10 / psy=1 / psy_rd=1.00:0.15 / mixed_ref=1 / me_range=32 / chroma_me=1 / trellis=2 / 8x8dct=1 / cqm=0 / deadzone=21,11 / fast_pskip=0 / chroma_qp_offset=-3 / threads=3 / sliced_threads=0 / nr=0 / decimate=1 / interlaced=0 / bluray_compat=0 / constrained_intra=0 / bframes=8 / b_pyramid=2 / b_adapt=2 / b_bias=0 / direct=3 / weightb=1 / open_gop=0 / weightp=2 / keyint=250 / keyint_min=23 / scenecut=40 / intra_refresh=0 / rc_lookahead=80 / rc=2pass / mbtree=1 / bitrate=1377 / ratetol=1.0 / qcomp=0.70 / qpmin=0 / qpmax=69 / qpstep=4 / cplxblur=20.0 / qblur=0.5 / ip_ratio=1.40 / aq=1:1.00
Language : English
Audio
ID : 2
Format : AC-3
Format/Info : Audio Coding 3
Mode extension : CM (complete main)
Codec ID : A_AC3
Duration : 1h 58mn
Bit rate mode : Constant
Bit rate : 384 Kbps
Channel(s) : 6 channels
Channel positions : Front: L C R, Side: L R, LFE
Sampling rate : 48.0 KHz
Bit depth : 16 bits
Compression mode : Lossy
Stream size : 325 MiB (22%)
Title : Dub

Скриншоты

Скачать

Скачать торрент!

Как скачивать? · Что такое торрент? · Рейтинг и ограничения

Сайт не распространяет и не хранит электронные версии произведений, а лишь предоставляет доступ к создаваемому пользователями каталогу ссылок на торрент-файлы, которые содержат только списки хеш-сумм

[Профиль] [ЛС]
Показать сообщения:    
Ответить на тему

Текущее время: Сегодня 20:21

Часовой пояс: GMT + 4



Вы не можете начинать темы
Вы не можете отвечать на сообщения
Вы не можете редактировать свои сообщения
Вы не можете удалять свои сообщения
Вы не можете голосовать в опросах
Вы не можете прикреплять файлы к сообщениям
Вы не можете скачивать файлы