Солдаты удачи / Soldiers of Fortune (Максим Коростышевский / Maxim Korostyshevsky) [2012 г., боевик, BDRip-AVC] Dub + Eng + Sub rus, eng

Ответить на тему
 
Автор Сообщение

user ®

Стаж: 7 лет 7 месяцев

Сообщений: 20008

Пост Пост: #1 от 23-Авг-2012 09:48

[Цитировать]

Солдаты удачи / Soldiers of Fortune«To stop the worst you have to send the best»--Название: Солдаты удачи
Оригинальное название: Soldiers of Fortune
Год выхода: 2012
Жанр: боевик
Выпущено: США / Globus-film, Jeff Most Productions, Most / Rice Films
Продолжительность: 01:33:49
Озвучивание: Профессиональное (дублированное)
Субтитры: русские (voronine) | английские
Навигация по главам: есть
Режиссер: Максим Коростышевский
В ролях: Шон Бин, Кристиан Слэйтер, Доминик Монахэн, Винг Реймз, Джеймс Кромуэлл, Фредди Родригес, Колм Мини, Райан Доноху, Чарли Бьюли, Сара Анн Шультс--О фильме:
Миллионеры-адреналиноманы, которые уже взяли от жизни все, но хотят еще большего. Все они: банкир с Уолл-Стрит, гений видео игр, русский алюминиевый магнат, международный торговец оружием и один из основателей мобильной связи. За собственные деньги они отправляются на войну, чтобы почувствовать ее настоящий вкус и получить новую дозу адреналина. Но с самого начала все идет не так. Иллюзия игры рушится, как только миллионеры попадают на остров. При высадке их лодки тонут, а охрана — убита.-- | | --Раздача от:
Автор рипа: L
Исходник:
Качество: BDRip-AVC
Контейнер: MKV
Видео: AVC / High@L4.1 / 1016x432 / 3 664 Kbps / 2.35:1
Аудио:
48 kHz, AC3, 3/2 (L,C,R,l,r) + LFE ch, ~384.00 kbps avg - Профессиональное (дублированное)
48 kHz, AC3, 3/2 (L,C,R,l,r) + LFE ch, ~384.00 kbps avg - оригинал
Субтитры: srt
Главы: как на BD, 12 шт.-- -

Знаете ли вы, что...

• Большая часть съемок проходила в Крыму.

MI/Log

Общее
Уникальный идентификатор         : 180165876826853073408989040869461374213 (0x878AAF8AEFE5A8C48F17BDC08496B505)
Полное имя                       : F:\RG25KADR\Soldaty.Udachi.2012.BDRip.x264.ac3.RG.25.Kadr.[by.L].mkv
Формат                           : Matroska
Версия формата                   : Version 2
Размер файла                     : 2,90 Гбайт
Продолжительность                : 1 ч. 33 м.
Общий поток                      : 4432 Кбит/сек
Название фильма                  : RG 25 Kadr by L [unionpeer]
Дата кодирования                 : UTC 2012-08-15 18:46:46
Программа кодирования            : mkvmerge v3.2.0 ('Beginnings') built on Feb 12 2010 16:46:17
Библиотека кодирования           : libebml v0.7.9 + libmatroska v0.8.1
Видео
Идентификатор                    : 1
Формат                           : AVC
Формат/Информация                : Advanced Video Codec
Профиль формата                  : High@L4.1
Параметр CABAC формата           : Да
Параметр ReFrames формата        : 11 кадров
Идентификатор кодека             : V_MPEG4/ISO/AVC
Продолжительность                : 1 ч. 33 м.
Битрейт                          : 3664 Кбит/сек
Ширина                           : 1016 пикселей
Высота                           : 432 пикселя
Соотношение сторон               : 2,35:1
Частота кадров                   : 23,976 кадра/сек
Цветовое пространство            : YUV
Субдискретизация насыщенности    : 4:2:0
Битовая глубина                  : 8 бит
Тип развёртки                    : Прогрессивная
Бит/(Пиксели*Кадры)              : 0.348
Размер потока                    : 2,34 Гбайт (81%)
Библиотека кодирования           : x264 core 125 r2200 999b753
Настройки программы              : cabac=1 / ref=11 / deblock=1:-2:-1 / analyse=0x3:0x133 / me=umh / subme=11 / psy=1 / psy_rd=1.10:0.05 / mixed_ref=1 / me_range=24 / chroma_me=1 / trellis=2 / 8x8dct=1 / cqm=0 / deadzone=21,11 / fast_pskip=1 / chroma_qp_offset=-3 / threads=6 / lookahead_threads=1 / sliced_threads=0 / nr=0 / decimate=1 / interlaced=0 / bluray_compat=0 / constrained_intra=0 / bframes=8 / b_pyramid=2 / b_adapt=2 / b_bias=0 / direct=3 / weightb=1 / open_gop=0 / weightp=2 / keyint=240 / keyint_min=22 / scenecut=40 / intra_refresh=0 / rc=2pass / mbtree=0 / bitrate=3664 / ratetol=1.0 / qcomp=0.70 / qpmin=10 / qpmax=61 / qpstep=4 / cplxblur=20.0 / qblur=0.5 / ip_ratio=1.40 / pb_ratio=1.30 / aq=1:0.70
Язык                             : English
Default                          : Нет
Forced                           : Нет
Аудио #1
Идентификатор                    : 2
Формат                           : AC-3
Формат/Информация                : Audio Coding 3
Расширение режима                : CM (complete main)
Идентификатор кодека             : A_AC3
Продолжительность                : 1 ч. 33 м.
Вид битрейта                     : Постоянный
Битрейт                          : 384 Кбит/сек
Каналы                           : 6 каналов
Расположение каналов             : Front: L C R, Side: L R, LFE
Частота                          : 48,0 КГц
Битовая глубина                  : 16 бит
Метод сжатия                     : С потерями
Размер потока                    : 258 Мбайт (9%)
Заголовок                        : Дубляж
Язык                             : Russian
Default                          : Да
Forced                           : Нет
Аудио #2
Идентификатор                    : 3
Формат                           : AC-3
Формат/Информация                : Audio Coding 3
Расширение режима                : CM (complete main)
Идентификатор кодека             : A_AC3
Продолжительность                : 1 ч. 33 м.
Вид битрейта                     : Постоянный
Битрейт                          : 384 Кбит/сек
Каналы                           : 6 каналов
Расположение каналов             : Front: L C R, Side: L R, LFE
Частота                          : 48,0 КГц
Битовая глубина                  : 16 бит
Метод сжатия                     : С потерями
Размер потока                    : 258 Мбайт (9%)
Заголовок                        : оригинал
Язык                             : English
Default                          : Нет
Forced                           : Нет
Текст #1
Идентификатор                    : 4
Формат                           : UTF-8
Идентификатор кодека             : S_TEXT/UTF8
Идентификатор кодека/Информация  : UTF-8 Plain Text
Заголовок                        : Voronine
Язык                             : Russian
Default                          : Да
Forced                           : Нет
Текст #2
Идентификатор                    : 5
Формат                           : UTF-8
Идентификатор кодека             : S_TEXT/UTF8
Идентификатор кодека/Информация  : UTF-8 Plain Text
Язык                             : English
Default                          : Нет
Forced                           : Нет
Меню
00:00:00.000                     : en:00:00:00.000
00:08:50.697                     : en:00:08:50.697
00:14:29.952                     : en:00:14:29.952
00:21:43.928                     : en:00:21:43.928
00:29:39.569                     : en:00:29:39.569
00:37:13.148                     : en:00:37:13.148
00:47:57.166                     : en:00:47:57.166
00:54:06.952                     : en:00:54:06.952
01:01:30.103                     : en:01:01:30.103
01:11:34.290                     : en:01:11:34.290
01:18:33.584                     : en:01:18:33.584
01:24:22.349                     : en:01:24:22.349
-[NoImage] avs [info]: 1016x432p 1:1 @ 24000/1001 fps (cfr)
-[NoImage] x264 [warning]: --psnr used with psy on: results will be invalid!
-[NoImage] x264 [warning]: --tune psnr should be used if attempting to benchmark psnr!
-[NoImage] x264 [info]: using SAR=1/1
-[NoImage] x264 [info]: using cpu capabilities: MMX2 SSE2Fast SSSE3 FastShuffle SSE4.1 Cache64
-[NoImage] x264 [info]: profile High, level 4.1
-[NoImage]
-[NoImage] x264 [info]: frame I:1517  Avg QP:18.20  size: 83791  PSNR Mean Y:45.17 U:48.21 V:48.77 Avg:46.01 Global:45.46
-[NoImage] x264 [info]: frame P:33211 Avg QP:20.23  size: 35331  PSNR Mean Y:43.29 U:46.68 V:47.18 Avg:44.18 Global:43.46
-[NoImage] x264 [info]: frame B:100200 Avg QP:22.60  size: 12729  PSNR Mean Y:42.45 U:46.36 V:46.88 Avg:43.42 Global:42.52
-[NoImage] x264 [info]: consecutive B-frames:  3.5%  4.1% 12.1% 28.8% 16.1% 31.8%  1.8%  0.6%  1.2%
-[NoImage] x264 [info]: mb I  I16..4:  4.2% 73.7% 22.1%
-[NoImage] x264 [info]: mb P  I16..4:  0.6% 16.3%  2.9%  P16..4: 24.5% 31.9% 11.9%  6.3%  0.9%    skip: 4.7%
-[NoImage] x264 [info]: mb B  I16..4:  0.1%  1.9%  0.4%  B16..8: 34.7% 25.6%  5.8%  direct: 7.8%  skip:23.8%  L0:37.1% L1:43.3% BI:19.6%
-[NoImage] x264 [info]: 8x8 transform intra:80.7% inter:56.9%
-[NoImage] x264 [info]: direct mvs  spatial:98.5% temporal:1.5%
-[NoImage] x264 [info]: coded y,uvDC,uvAC intra: 94.7% 93.9% 81.0% inter: 39.0% 33.1% 10.9%
-[NoImage] x264 [info]: i16 v,h,dc,p: 34% 16% 12% 38%
-[NoImage] x264 [info]: i8 v,h,dc,ddl,ddr,vr,hd,vl,hu:  7% 11%  5% 10% 14% 12% 15% 11% 14%
-[NoImage] x264 [info]: i4 v,h,dc,ddl,ddr,vr,hd,vl,hu:  8% 12%  4%  8% 15% 13% 15% 11% 15%
-[NoImage] x264 [info]: i8c dc,h,v,p: 45% 21% 15% 19%
-[NoImage] x264 [info]: Weighted P-Frames: Y:13.8% UV:7.7%
-[NoImage] x264 [info]: ref P L0: 52.5% 11.3% 15.6%  6.5%  4.4%  3.1%  2.3%  1.4%  1.1%  0.9%  0.7%  0.2%  0.0%
-[NoImage] x264 [info]: ref B L0: 82.3%  9.6%  3.5%  1.6%  1.1%  0.8%  0.6%  0.3%  0.2%  0.1%
-[NoImage] x264 [info]: ref B L1: 95.2%  4.8%
-[NoImage] x264 [info]: SSIM Mean Y:0.9761762 (16.230db)
-[NoImage] x264 [info]: PSNR Mean Y:42.685 U:46.458 V:46.972 Avg:43.633 Global:42.761 kb/s:3661.93
-[NoImage] encoded 134928 frames, 2.60 fps, 3661.93 kb/s
--[Information] [21.07.2012 8:47:30] Standard error stream
--[Information] Final statistics
-
Скачать

Скачать торрент!

Как скачивать? · Что такое торрент? · Рейтинг и ограничения

Сайт не распространяет и не хранит электронные версии произведений, а лишь предоставляет доступ к создаваемому пользователями каталогу ссылок на торрент-файлы, которые содержат только списки хеш-сумм

[Профиль] [ЛС]
Показать сообщения:    
Ответить на тему

Текущее время: Сегодня 16:17

Часовой пояс: GMT + 4



Вы не можете начинать темы
Вы не можете отвечать на сообщения
Вы не можете редактировать свои сообщения
Вы не можете удалять свои сообщения
Вы не можете голосовать в опросах
Вы не можете прикреплять файлы к сообщениям
Вы не можете скачивать файлы