Тысяча слов / A Thousand Words (Брайан Роббинс / Brian Robbins) [2012, США, комедия, драма, HDRip] DVO [студия "Райдо"]

Ответить на тему
 
Автор Сообщение

user ®

Стаж: 7 лет 7 месяцев

Сообщений: 20008

Пост Пост: #1 от 23-Авг-2012 09:48

[Цитировать]

Тысяча слов | A Thousand Words-- Страна: США
Жанр: комедия, драма
Год выпуска: 2012
Продолжительность: 01:31:30--Перевод: Любительский (двухголосый) [студия "Райдо"] по субтитрам [janetta]
Cубтитры: нет
Режиссер: Брайан Роббинс / Brian Robbins--В ролях: Эдди Мёрфи, Керри Вашингтон, Эмануэл Рэгсдэйл, Джилл Бейси, Грег Коллинз, Роберт Лекванг, Майкл Дж. Уилкинсон, Линдси Нельсон, Майкл Коуди Гилберт, Лу Салиба--Описание: Главный герой — трепло, каких свет не видывал. И вот однажды этот говорливый персонаж узнаёт, что ему осталось произнести вслух ровно тысячу слов, после чего он обязательно умрёт…--Сэмпл: http://multi-up.com/722945--Релиз группы: --Качество видео: HDRip
Формат видео: AVI
Видео: 1682 kbps, 720*304, 2.35:1, 23.976 fps, XviD
Аудио: 448 kbps, 48.0 KHz, 16 bits, 6 ch, AC-3--

MediaInfo

General
Complete name : D:\Фильмы\Tusiacha.slov.2012.P.HDRip..avi
Format : AVI
Format/Info : Audio Video Interleave
File size : 1.37 GiB
Duration : 1h 31mn
Overall bit rate : 2 139 Kbps
Writing application : VirtualDubMod 1.5.10.2 (build 2540/release)
Writing library : VirtualDubMod build 2540/release
Video
ID : 0
Format : MPEG-4 Visual
Format profile : Advanced Simple@L5
Format settings, BVOP : 1
Format settings, QPel : No
Format settings, GMC : No warppoints
Format settings, Matrix : Default (MPEG)
Codec ID : XVID
Codec ID/Hint : XviD
Duration : 1h 31mn
Bit rate : 1 682 Kbps
Width : 720 pixels
Height : 304 pixels
Display aspect ratio : 2.35:1
Frame rate : 23.976 fps
Color space : YUV
Chroma subsampling : 4:2:0
Bit depth : 8 bits
Scan type : Progressive
Compression mode : Lossy
Bits/(Pixel*Frame) : 0.320
Stream size : 1.07 GiB (79%)
Writing library : XviD 1.2.1 (UTC 2008-12-04)
Audio
ID : 1
Format : AC-3
Format/Info : Audio Coding 3
Mode extension : CM (complete main)
Format settings, Endianness : Big
Codec ID : 2000
Duration : 1h 31mn
Bit rate mode : Constant
Bit rate : 448 Kbps
Channel(s) : 6 channels
Channel positions : Front: L C R, Side: L R, LFE
Sampling rate : 48.0 KHz
Bit depth : 16 bits
Compression mode : Lossy
Stream size : 293 MiB (21%)
Alignment : Split accross interleaves
Interleave, duration : 42 ms (1.00 video frame)
Interleave, preload duration : 500 ms
Скачать

Скачать торрент!

Как скачивать? · Что такое торрент? · Рейтинг и ограничения

Сайт не распространяет и не хранит электронные версии произведений, а лишь предоставляет доступ к создаваемому пользователями каталогу ссылок на торрент-файлы, которые содержат только списки хеш-сумм

[Профиль] [ЛС]
Показать сообщения:    
Ответить на тему

Текущее время: Сегодня 06:59

Часовой пояс: GMT + 4



Вы не можете начинать темы
Вы не можете отвечать на сообщения
Вы не можете редактировать свои сообщения
Вы не можете удалять свои сообщения
Вы не можете голосовать в опросах
Вы не можете прикреплять файлы к сообщениям
Вы не можете скачивать файлы