Где-то сегодня ночью / Somewhere Tonight (Майкл Ди Джакомо / Michael Di Jiacomo) [2011, США, Нидерланды, драма, мелодрама, комедия, DVDRip] MVO [лицензия]

Ответить на тему
 
Автор Сообщение

user ®

Стаж: 7 лет 7 месяцев

Сообщений: 20008

Пост Пост: #1 от 23-Авг-2012 09:46

[Цитировать]

Где-то сегодня ночью / Somewhere Tonigh
«An Unexpected Love Story»


Страна: США, Нидерланды
Жанр: драма, мелодрама, комедия
Год выпуска: 2011
Продолжительность: 01:27:43
Перевод: Профессиональный (многоголосый закадровый) [лицензия]
Cубтитры: нет
Режиссер: Майкл Ди Джакомо / Michael Di Jiacomo
В ролях: Джон Туртурро, Макс Каселла, Элизабет Марвел, Кэтрин Боровиц, Линн Коэн, Шерил Кроу, Айви, Йон Маркл
Описание: Городская притча, в которой рассказывается о двух одиноких жителях Нью-Йорка, пытающихся найти себе партнера благодаря услуге «секс по телефону». Вулли, простой и в то же время эксцентричный курьер, который надеется услышать что-нибудь пикантное от Пэтти, страдающей боязнью открытого пространства и поэтому сидит в четырех стенах. Хотя никто из них совсем не является тем, кого они из себя изображают, тем не менее вместе они доказывают, что истинное обаяние можно отыскать даже в самых нераспознанных душах, и что у надежды бывает множество неожиданных оттенков.
Сэмпл:http://multi-up.com/750018
Качество видео: DVDRip
Формат видео: AVI
Видео:720x384 (1.88:1), 25 fps, XviD build 50 ~1776 kbps avg, 0.26 bit/pixel
Аудио1: 48 kHz, AC3 Dolby Digital, 2/0 (L,R) ch, ~224 kbps |Rus
Аудио2: 48 kHz, AC3 Dolby Digital, 2/0 (L,R) ch, ~224 kbps |Eng

Скриншоты

MI

General
Complete name : C:\Documents and Settings\Admin\Мои документы\Downloads\Gde-to.segodnya.nochyu.2011.P.DVDRip.avi
Format : AVI
Format/Info : Audio Video Interleave
File size : 1.37 GiB
Duration : 1h 27mn
Overall bit rate : 2 240 Kbps
Movie name : Gde-to.segodnya.nochyu.2011.P.DVDRip.IRONCLUB
Director : IRONCLUB
Writing application : VirtualDubMod 1.5.10.3 | www.virtualdub-fr.org || (build 2550/release)
Original source form/Name : Movie Arthouse
Copyright : ironclub.tv
Video
ID : 0
Format : MPEG-4 Visual
Format profile : Advanced Simple@L5
Format settings, BVOP : Yes
Format settings, QPel : No
Format settings, GMC : No warppoints
Format settings, Matrix : Custom
Codec ID : XVID
Codec ID/Hint : XviD
Duration : 1h 27mn
Bit rate : 1 778 Kbps
Width : 720 pixels
Height : 384 pixels
Display aspect ratio : 1.875
Frame rate : 25.000 fps
Resolution : 8 bits
Colorimetry : 4:2:0
Scan type : Progressive
Bits/(Pixel*Frame) : 0.257
Stream size : 1.09 GiB (79%)
Writing library : XviD 1.2.1 (UTC 2008-12-04)
Audio #1
ID : 1
Format : AC-3
Format/Info : Audio Coding 3
Codec ID : 2000
Duration : 1h 27mn
Bit rate mode : Constant
Bit rate : 224 Kbps
Channel(s) : 2 channels
Channel positions : L R
Sampling rate : 48.0 KHz
Stream size : 141 MiB (10%)
Alignment : Split accross interleaves
Interleave, duration : 40 ms (1.00 video frame)
Interleave, preload duration : 500 ms
Audio #2
ID : 2
Format : AC-3
Format/Info : Audio Coding 3
Codec ID : 2000
Duration : 1h 27mn
Bit rate mode : Constant
Bit rate : 224 Kbps
Channel(s) : 2 channels
Channel positions : L R
Sampling rate : 48.0 KHz
Stream size : 141 MiB (10%)
Alignment : Split accross interleaves
Interleave, duration : 40 ms (1.00 video frame)
Interleave, preload duration : 500 ms
Скачать

Скачать торрент!

Как скачивать? · Что такое торрент? · Рейтинг и ограничения

Сайт не распространяет и не хранит электронные версии произведений, а лишь предоставляет доступ к создаваемому пользователями каталогу ссылок на торрент-файлы, которые содержат только списки хеш-сумм

[Профиль] [ЛС]
Показать сообщения:    
Ответить на тему

Текущее время: Сегодня 10:56

Часовой пояс: GMT + 4



Вы не можете начинать темы
Вы не можете отвечать на сообщения
Вы не можете редактировать свои сообщения
Вы не можете удалять свои сообщения
Вы не можете голосовать в опросах
Вы не можете прикреплять файлы к сообщениям
Вы не можете скачивать файлы