Туннель / The Tunnel (Карло Ледесма / Carlo Ledesma) [2011, Австралия, ужасы, триллер, драма, HDRip] VO zamez Original Eng

Ответить на тему
 
Автор Сообщение

user ®

Стаж: 7 лет 7 месяцев

Сообщений: 20008

Пост Пост: #1 от 23-Авг-2012 09:46

[Цитировать]

Туннель / The Tunnel«The light runs out.» Страна: Австралия
Жанр: ужасы, триллер, драма
Год выпуска: 2011
Продолжительность: 01:31:14-Перевод: Одноголосый закадровый - zamez (спасибо)
Cубтитры: нет
Оригинальная аудиодорожка: английский-Режиссер: Карло Ледесма / Carlo Ledesma-В ролях:
Бел Делия, Энди Родореда, Стив Дэвис, Люк Арнольд, Джеймс Кэйтлин, Бен МакЛэйн, Ребекка Клэй, Шеннон Джонс-Описание:
Для решения проблем с водоснабжением власти Сиднея выдвигают проект по очистке и использованию объёмов воды, скопившейся в старых подземных коллекторах под городом. При этом чиновники отрицают тот факт, что брошенные туннели давно стали местом жительства городских бездомных, рискующих в случае осуществления проекта потерять последнее прибежище. Однако помимо бомжей в этих катакомбах обитает и кое-что ещё, с чем предстоит встретиться группе спустившихся под землю документалистов.-Доп. информация:
Перевод фильма - A.R.K.H.O.N
Закадровый текст читал - Вячеслав Замез-SAMPLE

Качество видео: HDRip
Формат видео: AVI
Видео: Xvid, 720x304, 2.35:1, 25.000 fps, 1 818 Kbps, 0.332 bp
Аудио 1: AC3, 48.0 KHz, 224 Kbps, 2 channels [rus]
Аудио 2: AC3, 48.0 KHz, 224 Kbps, 2 channels [eng]

MediaInfo

General
Complete name : E:\My torrents\The.Tunnel.2011.VO.zamez.avi
Format : AVI
Format/Info : Audio Video Interleave
File size : 1.45 GiB
Duration : 1h 31mn
Overall bit rate : 2 280 Kbps
Writing application : VirtualDubMod 1.5.10.3 | www.virtualdub-fr.org || (build 2550/release)
Writing library : VirtualDubMod build 2550/release
Video
ID : 0
Format : MPEG-4 Visual
Format profile : Advanced Simple@L5
Format settings, BVOP : 2
Format settings, QPel : No
Format settings, GMC : No warppoints
Format settings, Matrix : Custom
Codec ID : XVID
Codec ID/Hint : XviD
Duration : 1h 31mn
Bit rate : 1 818 Kbps
Width : 720 pixels
Height : 304 pixels
Display aspect ratio : 2.35:1
Frame rate : 25.000 fps
Color space : YUV
Chroma subsampling : 4:2:0
Bit depth : 8 bits
Scan type : Progressive
Compression mode : Lossy
Bits/(Pixel*Frame) : 0.332
Stream size : 1.16 GiB (80%)
Writing library : XviD 64
Audio #1
ID : 1
Format : AC-3
Format/Info : Audio Coding 3
Mode extension : CM (complete main)
Format settings, Endianness : Big
Codec ID : 2000
Duration : 1h 31mn
Bit rate mode : Constant
Bit rate : 224 Kbps
Channel(s) : 2 channels
Channel positions : Front: L R
Sampling rate : 48.0 KHz
Bit depth : 16 bits
Compression mode : Lossy
Stream size : 146 MiB (10%)
Alignment : Split accross interleaves
Interleave, duration : 40 ms (1.00 video frame)
Interleave, preload duration : 500 ms
Audio #2
ID : 2
Format : AC-3
Format/Info : Audio Coding 3
Mode extension : CM (complete main)
Format settings, Endianness : Big
Codec ID : 2000
Duration : 1h 31mn
Bit rate mode : Constant
Bit rate : 224 Kbps
Channel(s) : 2 channels
Channel positions : Front: L R
Sampling rate : 48.0 KHz
Bit depth : 16 bits
Compression mode : Lossy
Stream size : 146 MiB (10%)
Alignment : Split accross interleaves
Interleave, duration : 40 ms (1.00 video frame)
Interleave, preload duration : 500 ms

Скриншоты

Скачать

Скачать торрент!

Как скачивать? · Что такое торрент? · Рейтинг и ограничения

Сайт не распространяет и не хранит электронные версии произведений, а лишь предоставляет доступ к создаваемому пользователями каталогу ссылок на торрент-файлы, которые содержат только списки хеш-сумм

[Профиль] [ЛС]
Показать сообщения:    
Ответить на тему

Текущее время: Сегодня 14:09

Часовой пояс: GMT + 4



Вы не можете начинать темы
Вы не можете отвечать на сообщения
Вы не можете редактировать свои сообщения
Вы не можете удалять свои сообщения
Вы не можете голосовать в опросах
Вы не можете прикреплять файлы к сообщениям
Вы не можете скачивать файлы