Берни / Bernie (Ричард Линклейтер / Richard Linklater) [2011, США, драма, комедия, криминал, HDRip ] DVO

Ответить на тему
 
Автор Сообщение

user ®

Стаж: 7 лет 7 месяцев

Сообщений: 20008

Пост Пост: #1 от 23-Авг-2012 09:46

[Цитировать]

Берни / Bernie
«A story so unbelievable it must be true.»


Страна: США
Жанр: драма, комедия, криминал
Год выпуска: 2011
Продолжительность: 01:39:40
Перевод: Профессиональный (двухголосый закадровый) [студия "Райдо"] по субтитрам [Janneta]
Cубтитры: нет
Режиссер: Ричард Линклейтер / Richard Linklatero
В ролях: Джек Блэк, Ширли МакЛейн, Мэттью МакКонахи, Рик Дайал, Мона Ли Фульц, Рэй Кроуфорд, Сонни Карл Дэвис, Дэвид Блэкуелл, Брэндон Смит, Томми Дж. Кендрик
Описание: Фильм расскажет про сотрудника похоронного бюро, который наживы ради убивает богатую вдову и всеми силами пытается поддержать иллюзию того, что она жива.
Сэмпл:http://multi-up.com/750075
Качество видео: HDRip [рип с BDRip 720p]
Формат видео: AVI
Видео:640x352 (1.82:1), 23.976 fps, XviD build 50 ~840 kbps avg, 0.16 bit/pixel
Аудио:48 kHz, MPEG Layer 3, 2 ch, ~128.00 kbps avg

Скриншоты

MI

Format/Info : Audio Video Interleave
File size : 697 MiB
Duration : 1h 39mn
Overall bit rate : 978 Kbps
Writing application : VirtualDubMod 1.5.10.2 (build 2540/release)
Writing library : VirtualDubMod build 2540/release
Video
ID : 0
Format : MPEG-4 Visual
Format profile : Advanced Simple@L5
Format settings, BVOP : Yes
Format settings, QPel : No
Format settings, GMC : No warppoints
Format settings, Matrix : Default (MPEG)
Codec ID : XVID
Codec ID/Hint : XviD
Duration : 1h 39mn
Bit rate : 841 Kbps
Width : 640 pixels
Height : 352 pixels
Display aspect ratio : 16:9
Frame rate : 23.976 fps
Resolution : 8 bits
Colorimetry : 4:2:0
Scan type : Progressive
Bits/(Pixel*Frame) : 0.156
Stream size : 599 MiB (86%)
Writing library : XviD 1.2.1 (UTC 2008-12-04)
Audio
ID : 1
Format : MPEG Audio
Format version : Version 1
Format profile : Layer 3
Codec ID : 55
Codec ID/Hint : MP3
Duration : 1h 39mn
Bit rate mode : Constant
Bit rate : 128 Kbps
Channel(s) : 2 channels
Sampling rate : 48.0 KHz
Stream size : 91.2 MiB (13%)
Alignment : Aligned on interleaves
Interleave, duration : 42 ms (1.00 video frame)
Interleave, preload duration : 504 ms
Writing library : LAME3.99r
Encoding settings : -m s -V 4 -q 2 -lowpass 17 -b 128
Скачать

Скачать торрент!

Как скачивать? · Что такое торрент? · Рейтинг и ограничения

Сайт не распространяет и не хранит электронные версии произведений, а лишь предоставляет доступ к создаваемому пользователями каталогу ссылок на торрент-файлы, которые содержат только списки хеш-сумм

[Профиль] [ЛС]
Показать сообщения:    
Ответить на тему

Текущее время: Сегодня 02:19

Часовой пояс: GMT + 4



Вы не можете начинать темы
Вы не можете отвечать на сообщения
Вы не можете редактировать свои сообщения
Вы не можете удалять свои сообщения
Вы не можете голосовать в опросах
Вы не можете прикреплять файлы к сообщениям
Вы не можете скачивать файлы