Изнутри / On the Inside (Д.В. Браун / D.W. Brown) [2011, Триллер, драма, BDRip-AVC] VO + Original

Ответить на тему
 
Автор Сообщение

user ®

Стаж: 7 лет 7 месяцев

Сообщений: 20008

Пост Пост: #1 от 23-Авг-2012 09:46

[Цитировать]

Изнутри / On the Inside-- Страна: США / Mike Wittlin Productions
Жанр: Триллер, драма
Год выпуска: 2011
Продолжительность: 01:30:35
Навигация по главам: Есть-Перевод: Одноголосый закадровый
Cубтитры: нет
Оригинальная аудиодорожка: английский-Режиссер: Д.В. Браун / D.W. Brown
В ролях: Ник Стал, Дэш Майок, Оливия Уайлд, Прюитт Тэйлор Винс, Шохре Агдашлу, Тарик Троттер, Дэниел Фрэнзиси, Дэниэл Лондон, Джоэнн Барон, Хейли Уэбб
Описание: Аллен Мэнерик помещён в психиатрическую лечебницу для душевнобольных преступников за совершение жестокого убийства из мести. Здесь ему приходится иметь дело с серьёзно больными и весьма опасными пациентами, пока ему, в рамках программы по реабилитации, не заменяют режим содержания на более свободный. Там он встречает Миа — очаровательную заключённую с маниакально-депрессивным синдромом. Постоянно преследуемый воспоминаниями, Аллен ищет искупления, когда неожиданные события вынуждают его встать на защиту Миа от насилия и хаоса этого учреждения.- -Качество видео: BDRip-AVC [Blu-Ray Remux]
Формат видео: MKV
Видео: H.264, 1024x576 (16:9), 23,976 кадр/сек, 2686 Кбит/сек, 0.190 bit/pixel
Аудио#1: 48 kHz, AC3 Dolby Digital, 3/2 (L,C,R,l,r) + LFE ch, ~384.00 kbps avg | RUS
Аудио#2: 48 kHz, AC3 Dolby Digital, 3/2 (L,C,R,l,r) + LFE ch, ~384.00 kbps avg | ENG

MediaInfo

Общее
Уникальный идентификатор : 236020252614937258707435909086792077474 (0xB18FD8E20D90222EB8D1F288A00750A2)
Полное имя : Iznytri.2011.L1.BDRip.x264.potroks.mkv
Формат : Matroska
Версия формата : Version 2
Размер файла : 2,19 Гбайт
Продолжительность : 1 ч. 30 м.
Общий поток : 3456 Кбит/сек
Название фильма : -=POTROKS=-
Дата кодирования : UTC 2012-08-22 14:56:30
Программа кодирования : mkvmerge v5.7.0 ('The Whirlwind') built on Jul 8 2012 20:08:51
Библиотека кодирования : libebml v1.2.3 + libmatroska v1.3.0
Видео
Идентификатор : 1
Формат : AVC
Формат/Информация : Advanced Video Codec
Профиль формата : High@L4.0
Параметр CABAC формата : Да
Параметр ReFrames формата : 13 кадров
Идентификатор кодека : V_MPEG4/ISO/AVC
Продолжительность : 1 ч. 30 м.
Битрейт : 2686 Кбит/сек
Ширина : 1024 пикселя
Высота : 576 пикселей
Соотношение сторон : 16:9
Частота кадров : 23,976 кадра/сек
Цветовое пространство : YUV
Субдискретизация насыщенности : 4:2:0
Битовая глубина : 8 бит
Тип развёртки : Прогрессивная
Бит/(Пиксели*Кадры) : 0.190
Размер потока : 1,66 Гбайт (76%)
Заголовок : Iznytri.2011.L1.BDRip.x264.potroks
Библиотека кодирования : x264 core 125 r2200 999b753
Настройки программы : cabac=1 / ref=13 / deblock=1:-3:-2 / analyse=0x3:0x133 / me=umh / subme=9 / psy=1 / psy_rd=1.05:0.05 / mixed_ref=1 / me_range=32 / chroma_me=1 / trellis=2 / 8x8dct=1 / cqm=0 / deadzone=21,11 / fast_pskip=0 / chroma_qp_offset=-3 / threads=6 / lookahead_threads=1 / sliced_threads=0 / nr=0 / decimate=0 / interlaced=0 / bluray_compat=0 / constrained_intra=0 / bframes=14 / b_pyramid=2 / b_adapt=2 / b_bias=0 / direct=3 / weightb=1 / open_gop=0 / weightp=2 / keyint=240 / keyint_min=23 / scenecut=40 / intra_refresh=0 / rc_lookahead=100 / rc=2pass / mbtree=1 / bitrate=2686 / ratetol=1.0 / qcomp=0.70 / qpmin=10 / qpmax=51 / qpstep=4 / cplxblur=20.0 / qblur=0.5 / vbv_maxrate=20000 / vbv_bufsize=25000 / nal_hrd=none / ip_ratio=1.35 / aq=1:0.80
Язык : English
Default : Да
Forced : Нет
Аудио #1
Идентификатор : 2
Формат : AC-3
Формат/Информация : Audio Coding 3
Расширение режима : CM (complete main)
Идентификатор кодека : A_AC3
Продолжительность : 1 ч. 30 м.
Вид битрейта : Постоянный
Битрейт : 384 Кбит/сек
Каналы : 6 каналов
Расположение каналов : Front: L C R, Side: L R, LFE
Частота : 48,0 КГц
Битовая глубина : 16 бит
Метод сжатия : С потерями
Размер потока : 249 Мбайт (11%)
Заголовок : L1
Язык : Russian
Default : Да
Forced : Да
Аудио #2
Идентификатор : 3
Формат : AC-3
Формат/Информация : Audio Coding 3
Расширение режима : CM (complete main)
Идентификатор кодека : A_AC3
Продолжительность : 1 ч. 30 м.
Вид битрейта : Постоянный
Битрейт : 384 Кбит/сек
Каналы : 6 каналов
Расположение каналов : Front: L C R, Side: L R, LFE
Частота : 48,0 КГц
Битовая глубина : 16 бит
Метод сжатия : С потерями
Размер потока : 249 Мбайт (11%)
Язык : English
Default : Нет
Forced : Нет
Меню
00:00:00.000 : en:00:00:00.000
00:05:37.671 : en:00:05:37.671
00:11:49.876 : en:00:11:49.876
00:20:08.582 : en:00:20:08.582
00:32:59.477 : en:00:32:59.477
00:40:41.564 : en:00:40:41.564
00:45:42.365 : en:00:45:42.365
00:50:56.553 : en:00:50:56.553
00:57:43.794 : en:00:57:43.794
01:04:11.139 : en:01:04:11.139
01:19:18.045 : en:01:19:18.045
01:25:15.986 : en:01:25:15.986

log

x264 [info]: frame I:1065 Avg QP:18.76 size: 76488
x264 [info]: frame P:27105 Avg QP:20.24 size: 30923
x264 [info]: frame B:102149 Avg QP:22.46 size: 8863
x264 [info]: consecutive B-frames: 1.2% 0.8% 2.9% 34.0% 17.8% 36.5% 3.8% 1.8% 0.3% 0.2% 0.1% 0.1% 0.0% 0.0% 0.5%
x264 [info]: mb I I16..4: 9.9% 74.3% 15.8%
x264 [info]: mb P I16..4: 0.9% 6.9% 0.8% P16..4: 42.4% 22.9% 17.2% 1.2% 0.3% skip: 7.3%
x264 [info]: mb B I16..4: 0.0% 0.5% 0.1% B16..8: 43.1% 7.9% 2.5% direct: 5.8% skip:40.2% L0:41.7% L1:48.3% BI:10.0%
x264 [info]: 8x8 transform intra:79.4% inter:58.7%
x264 [info]: direct mvs spatial:99.7% temporal:0.3%
x264 [info]: coded y,uvDC,uvAC intra: 90.4% 72.3% 39.5% inter: 28.6% 17.8% 4.1%
x264 [info]: i16 v,h,dc,p: 52% 14% 7% 26%
x264 [info]: i8 v,h,dc,ddl,ddr,vr,hd,vl,hu: 10% 7% 5% 11% 15% 15% 14% 12% 11%
x264 [info]: i4 v,h,dc,ddl,ddr,vr,hd,vl,hu: 9% 7% 3% 10% 17% 16% 14% 12% 11%
x264 [info]: i8c dc,h,v,p: 37% 26% 21% 16%
x264 [info]: Weighted P-Frames: Y:3.0% UV:0.6%
x264 [info]: ref P L0: 45.1% 8.9% 17.0% 7.3% 5.5% 4.2% 3.4% 2.1% 1.7% 1.5% 1.2% 1.1% 0.9% 0.0% 0.0%
x264 [info]: ref B L0: 79.0% 10.2% 3.9% 1.9% 1.4% 1.1% 0.9% 0.5% 0.4% 0.4% 0.2% 0.1%
x264 [info]: ref B L1: 95.2% 4.8%
x264 [info]: kb/s:2685.98
x264 [total]: encoded 130319 frames, 4.36 fps, 2685.98 kb/s

Скриншоты


Скачать

Скачать торрент!

Как скачивать? · Что такое торрент? · Рейтинг и ограничения

Сайт не распространяет и не хранит электронные версии произведений, а лишь предоставляет доступ к создаваемому пользователями каталогу ссылок на торрент-файлы, которые содержат только списки хеш-сумм

[Профиль] [ЛС]
Показать сообщения:    
Ответить на тему

Текущее время: Сегодня 10:43

Часовой пояс: GMT + 4



Вы не можете начинать темы
Вы не можете отвечать на сообщения
Вы не можете редактировать свои сообщения
Вы не можете удалять свои сообщения
Вы не можете голосовать в опросах
Вы не можете прикреплять файлы к сообщениям
Вы не можете скачивать файлы