Плохая мамочка / Bringing Up Bobby (Фамке Янссен / Famke Janssen) [2011, США, драма, семейный, BDRip] MVO + Original (Eng) + Sub (rus)

Ответить на тему
 
Автор Сообщение

user ®

Стаж: 7 лет 7 месяцев

Сообщений: 20008

Пост Пост: #1 от 23-Авг-2012 09:46

[Цитировать]

ПЛОХАЯ МАМОЧКА / Bringing Up Bobby -Страна: США
Жанр: драма, семейный
Студии: Dutch Tilt Film, Fu Works, Head Gear Films.
Год выпуска: 2012
Продолжительность: 01:35:32-Перевод: профессиональный (многоголосый закадровый) лицензия
Оригинальная аудиодорожка: английский
Субтитры: русские (Full BD) отдельно-Режиссёр: Фамке Янссен / Famke Janssen-В ролях: Милла Йовович, Спенсер Лист, Рори Кокрейн, Марсия Кросс, Билл Пуллман, Джастин Холл, Рэй Прюитт, Шелли Фокс, Рената Батиста, Эрик Старки.-Описание:
Очаровательная и изобретательная мошенница Олив, когда-то эмигрировавшая из СССР в США, пытается порвать с преступным миром ради своего рожденного в Америке сына Бобби. Вместе они переезжают в далекую от городской суеты Оклахому, но прошлое настигает их и там. За некогда совершенное преступление Олив отправляется в тюрьму.
К счастью, о Бобби вызывается позаботиться ее новый знакомый — успешный бизнесмен Кент. Казалось бы, все под контролем, но, выйдя из-за решетки, Олив сталкивается с самым тяжелым испытанием в своей жизни, которое ставит будущее ее ребенка под большой вопрос.
-5.1/10 (567) 5.388 (476)-Качество видео: BDRip (Исходник Plohaya.mamochka.2011.MPEG-4-AVC.BluRay.1080p)
Формат файла: AVI-Видео: XviD, 720x400 (16:9), 23.976 fps, 2343 kbps avg, 0.339 bit/pixel
Аудио 1: 48 kHz, AC3 Dolby Digital, 3/2 (L,C,R,l,r) + LFE ch, 448 kbps avg (Rus MVO)
Аудио 2: 48 kHz, AC3 Dolby Digital, 3/2 (L,C,R,l,r) + LFE ch, 448 kbps avg (Eng Original)
Формат субтитров: softsub (SRT)-

MediaInfo

Общее
Полное имя : D:\Torrent\Plohaya.mamochka.2011.DUAL.XviD.AC3.BDRip._by.ZNG505\Plohaya.mamochka.2011.DUAL.XviD.AC3.BDRip.avi
Формат : AVI
Формат/Информация : Audio Video Interleave
Профиль формата : OpenDML
Размер файла : 2,17 Гбайт
Продолжительность : 1 ч. 35 м.
Общий поток : 3257 Кбит/сек
Программа кодирования : VirtualDubModRus 1.5.10.2 (build 2542/release)
Библиотека кодирования : VirtualDubMod build 2542/release
Видео
Идентификатор : 0
Формат : MPEG-4 Visual
Профиль формата : Advanced Simple@L5
Параметр BVOP формата : 2
Параметр QPel формата : Нет
Параметр GMC формата : Без точки перехода
Параметр матрицы формата : Выборочная
Идентификатор кодека : XVID
Идентификатор кодека/Подсказка : XviD
Продолжительность : 1 ч. 35 м.
Битрейт : 2343 Кбит/сек
Ширина : 720 пикселей
Высота : 400 пикселей
Соотношение сторон : 16:9
Частота кадров : 23,976 кадра/сек
Цветовое пространство : YUV
Субдискретизация насыщенности : 4:2:0
Битовая глубина : 8 бит
Тип развёртки : Прогрессивная
Метод сжатия : С потерями
Бит/(Пиксели*Кадры) : 0.339
Размер потока : 1,56 Гбайт (72%)
Библиотека кодирования : XviD 65
Аудио #1
Идентификатор : 1
Формат : AC-3
Формат/Информация : Audio Coding 3
Расширение режима : CM (complete main)
Идентификатор кодека : 2000
Продолжительность : 1 ч. 35 м.
Вид битрейта : Постоянный
Битрейт : 448 Кбит/сек
Каналы : 6 каналов
Расположение каналов : Front: L C R, Side: L R, LFE
Частота : 48,0 КГц
Битовая глубина : 16 бит
Метод сжатия : С потерями
Размер потока : 306 Мбайт (14%)
Выравнивание : Разделение по промежуткам
Продолжительность промежутка : 42 мс. (1,00 видеокадр)
Время предзагрузки промежутка : 500 мс.
Заголовок : Rus MVO
Аудио #2
Идентификатор : 2
Формат : AC-3
Формат/Информация : Audio Coding 3
Расширение режима : CM (complete main)
Идентификатор кодека : 2000
Продолжительность : 1 ч. 35 м.
Вид битрейта : Постоянный
Битрейт : 448 Кбит/сек
Каналы : 6 каналов
Расположение каналов : Front: L C R, Side: L R, LFE
Частота : 48,0 КГц
Битовая глубина : 16 бит
Метод сжатия : С потерями
Размер потока : 306 Мбайт (14%)
Выравнивание : Разделение по промежуткам
Продолжительность промежутка : 42 мс. (1,00 видеокадр)
Время предзагрузки промежутка : 500 мс.
Заголовок : Eng Original

Скриншот c названием фильма

Скриншоты

Скачать

Скачать торрент!

Как скачивать? · Что такое торрент? · Рейтинг и ограничения

Сайт не распространяет и не хранит электронные версии произведений, а лишь предоставляет доступ к создаваемому пользователями каталогу ссылок на торрент-файлы, которые содержат только списки хеш-сумм

[Профиль] [ЛС]
Показать сообщения:    
Ответить на тему

Текущее время: Сегодня 00:08

Часовой пояс: GMT + 4



Вы не можете начинать темы
Вы не можете отвечать на сообщения
Вы не можете редактировать свои сообщения
Вы не можете удалять свои сообщения
Вы не можете голосовать в опросах
Вы не можете прикреплять файлы к сообщениям
Вы не можете скачивать файлы