Зaпрeтнaя зoнa / Сhernobyl Diаriеs (Брэдли Паркер / Bradley Parker) [2012, США, ужасы, DVB] Dub R5

Ответить на тему
 
Автор Сообщение

user ®

Стаж: 7 лет 7 месяцев

Сообщений: 20008

Пост Пост: #1 от 23-Авг-2012 09:46

[Цитировать]

Зaпрeтнaя зoнa / Сhernobyl Diаriеs«Десять лет назад правительство разрешило экскурсии в 'Мёртвый город'. Они утверждали, что это безопасно... они ошибались» Страна: США
Жанр: ужасы
Год выпуска: 2012
Продолжительность: 01:24:25
Перевод: Профессиональный (дублированный) -Лицензия-
Cубтитры: нет
Режиссер: Брэдли Паркер / Bradley Parker
В ролях: Ингрид Болсай Бердал, Дмитрий Дьяченко, Оливия Дадли, Девин Келли, Джесси МакКартни, Натан Филлипс, Джонатан Садовский, Милош Тимотиевич, Милутин Милошевич, Иван Джорджевич
Описание: Шестеро молодых туристов-экстремалов прибыли на каникулы в Украину. Узнав о том, что в Зону отчуждения устраиваются экскурсии, они нанимают гида и отправляются за незабываемыми впечатлениями. И таковые не заставляют их долго ждать. Казалось, радиоактивный город пуст и заброшен. Там не осталось ничего живого. Но как только солнце прячется за горизонт, Припять оживает. Нечеловеческие крики сотрясают ночной воздух. Незадачливых путешественников охватывают ужас и паника. Они понимают, что не одни в этом мёртвом городе.
Качество видео: DVB
Формат видео: MPEG2 Video
Видео: MPEG2 Video, 720x576 (16:9), 25.00fps, 3100 Kbps, 0.341 bit/pixel
Аудио: 48 kHz, AC3 Dolby Digital, 3/2 (L,C,R,l,r) + LFE ch, ~448.00 kbps avg
DVB by Drek

MediaInfo

Общее
Полное имя : C:\Documents and Settings\Администратор\Рабочий стол\Запретная зона_DVB_by_Drek.mpg
Формат : MPEG-PS
Размер файла : 2,12 Гбайт
Продолжительность : 1 ч. 24 м.
Режим общего битрейта : Переменный
Общий поток : 3605 Кбит/сек
Видео
Идентификатор : 224 (0xE0)
Формат : MPEG Video
Версия формата : Version 2
Профиль формата : Main@Main
Параметр BVOP формата : Да
Параметр матрицы формата : Выборочная
Продолжительность : 1 ч. 24 м.
Вид битрейта : Переменный
Битрейт : 3085 Кбит/сек
Максимальный битрейт : 15,0 Мбит/сек
Ширина : 720 пикселей
Высота : 576 пикселей
Соотношение сторон : 16:9
Частота кадров : 25,000 кадров/сек
Стандарт вещания : PAL
Цветовое пространство : YUV
Субдискретизация насыщенности : 4:2:0
Битовая глубина : 8 бит
Метод сжатия : С потерями
Бит/(Пиксели*Кадры) : 0.298
Размер потока : 1,82 Гбайт (86%)
Аудио
Идентификатор : 189 (0xBD)-128 (0x80)
Формат : AC-3
Формат/Информация : Audio Coding 3
Расширение режима : CM (complete main)
Режим смешивания : DVD-Video
Продолжительность : 1 ч. 24 м.
Вид битрейта : Постоянный
Битрейт : 448 Кбит/сек
Каналы : 6 каналов
Расположение каналов : Front: L C R, Side: L R, LFE
Частота : 48,0 КГц
Битовая глубина : 16 бит
Метод сжатия : С потерями
Размер потока : 270 Мбайт (12%)

Скриншот c названием фильма

Скриншоты

Скачать

Скачать торрент!

Как скачивать? · Что такое торрент? · Рейтинг и ограничения

Сайт не распространяет и не хранит электронные версии произведений, а лишь предоставляет доступ к создаваемому пользователями каталогу ссылок на торрент-файлы, которые содержат только списки хеш-сумм

[Профиль] [ЛС]

sasha_05

Стаж: 4 года 3 месяца

Сообщений: 1

Пост Пост: #2 от 14-Сен-2012 20:03 (спустя 22 дня)

[Цитировать]

Нормуль фильм, мелкобюджетный конечно
[Профиль] [ЛС]
Показать сообщения:    
Ответить на тему

Текущее время: Сегодня 08:13

Часовой пояс: GMT + 4



Вы не можете начинать темы
Вы не можете отвечать на сообщения
Вы не можете редактировать свои сообщения
Вы не можете удалять свои сообщения
Вы не можете голосовать в опросах
Вы не можете прикреплять файлы к сообщениям
Вы не можете скачивать файлы