Американский пирог: Все в сборе / American Reunion (Джон Харвитц / Jon Hurwitz, Хейден Шлоссберг / Hayden Schlossberg) [2012, США, комедия, BDRip] DUB (Лицензия CEE)

Ответить на тему
 
Автор Сообщение

user ®

Стаж: 7 лет 7 месяцев

Сообщений: 20008

Пост Пост: #1 от 23-Авг-2012 09:46

[Цитировать]

АМЕРИКАНСКИЙ ПИРОГ: ВСЕ В СБОРЕ / American Reunion
«Самый лакомый кусочек на конец»
-Страна: США
Студия: Universal Pictures
Жанр: комедия
Год выпуска: 2012
Продолжительность: 01:52:52-Перевод: профессиональный (дублированный) лицензия CEE
Субтитры: нет-Режиссёры: Джон Харвитц / Jon Hurwitz, Хейден Шлоссберг / Hayden Schlossberg-В ролях: Джейсон Биггз (Jim Levenstein), Элисон Хэннигэн (Michelle), Крис Клейн (Oz), Томас Иэн Николас (Kevin), Тара Рид (Vicky), Шонн Уильям Скотт (Steve Stifler), Мена Сувари (Heather), Эдди Кэй Томас (Finch), Джон Чо (MILF Guy #2), Дженнифер Кулидж (Stifler's Mom), Юджин Леви (Jim's Dad), Наташа Лионн (Jessica).-Описание:
Герои «Американского пирога» встречаются вновь спустя несколько лет. Они докажут, что даже время и расстояние не в силах разрушить их дружбу. Летом 1999-го четверо мичиганских парней решили расстаться с невинностью. Прошли годы, и теперь друзья вернулись домой уже повзрослевшими, чтобы вспомнить прошлое и оторваться на полную катушку.
-7.1/10 (61152) 7.481 (24394)-Качество видео: BDRip
Формат файла: AVI
Видео: XviD, 704x384 (16:9), 23.976 fps, 1458 kbps avg, 0.225 bit/pixel
Аудио: 48 kHz, AC3 Dolby Digital, 3/2 (L,C,R,l,r) + LFE ch, 384 kbps avg (Rus DUB)-

MediaInfo

Общее
Полное имя : D:\Torrent\American.Reunion.2012.DUB.XviD.AC3.BDRip._by.ZNG505_.avi
Формат : AVI
Формат/Информация : Audio Video Interleave
Размер файла : 1,46 Гбайт
Продолжительность : 1 ч. 52 м.
Общий поток : 1851 Кбит/сек
Программа кодирования : VirtualDubModRus 1.5.10.2 (build 2542/release)
Библиотека кодирования : VirtualDubMod build 2542/release
Видео
Идентификатор : 0
Формат : MPEG-4 Visual
Профиль формата : Advanced Simple@L5
Параметр BVOP формата : 2
Параметр QPel формата : Нет
Параметр GMC формата : Без точки перехода
Параметр матрицы формата : Выборочная
Идентификатор кодека : XVID
Идентификатор кодека/Подсказка : XviD
Продолжительность : 1 ч. 52 м.
Битрейт : 1458 Кбит/сек
Ширина : 704 пикселя
Высота : 384 пикселя
Соотношение сторон : 16:9
Частота кадров : 23,976 кадра/сек
Цветовое пространство : YUV
Субдискретизация насыщенности : 4:2:0
Битовая глубина : 8 бит
Тип развёртки : Прогрессивная
Метод сжатия : С потерями
Бит/(Пиксели*Кадры) : 0.225
Размер потока : 1,15 Гбайт (79%)
Библиотека кодирования : XviD 65
Аудио
Идентификатор : 1
Формат : AC-3
Формат/Информация : Audio Coding 3
Расширение режима : CM (complete main)
Идентификатор кодека : 2000
Продолжительность : 1 ч. 52 м.
Вид битрейта : Постоянный
Битрейт : 384 Кбит/сек
Каналы : 6 каналов
Расположение каналов : Front: L C R, Side: L R, LFE
Частота : 48,0 КГц
Битовая глубина : 16 бит
Метод сжатия : С потерями
Размер потока : 310 Мбайт (21%)
Выравнивание : Разделение по промежуткам
Продолжительность промежутка : 42 мс. (1,00 видеокадр)
Время предзагрузки промежутка : 500 мс.
Заголовок : Rus DUB

Скриншот c названием фильма

Скриншоты

Скачать

Скачать торрент!

Как скачивать? · Что такое торрент? · Рейтинг и ограничения

Сайт не распространяет и не хранит электронные версии произведений, а лишь предоставляет доступ к создаваемому пользователями каталогу ссылок на торрент-файлы, которые содержат только списки хеш-сумм

[Профиль] [ЛС]
Показать сообщения:    
Ответить на тему

Текущее время: Сегодня 19:21

Часовой пояс: GMT + 4



Вы не можете начинать темы
Вы не можете отвечать на сообщения
Вы не можете редактировать свои сообщения
Вы не можете удалять свои сообщения
Вы не можете голосовать в опросах
Вы не можете прикреплять файлы к сообщениям
Вы не можете скачивать файлы