Значит, война / This Means War (МакДжи / McG) [2012 г., Боевик, мелодрама, комедия, BDRip] Dub Sub Rus + Original Eng + Ukrainian

Ответить на тему
 
Автор Сообщение

Kraft2727 ®

Стаж: 4 года 6 месяцев

Сообщений: 454

Пост Пост: #1 от 09-Авг-2012 19:25

[Цитировать]

Значит, война / This Means War«2 шпиона - 1 проблема»- Год выпуска: 2012
Страна: США
Жанр: Боевик, мелодрама, комедия
Продолжительность: 01:44:00-Перевод: Профессиональный (дублированный) + дублированный Ukrainian
Cубтитры: Rus, English
Оригинальная аудиодорожка: английский-Режиссер: МакДжи / McG-В ролях: Том Харди, Крис Пайн, Риз Уизерспун, Тиль Швайгер, Челси Хэндлер, Джон Пол Руттан, Эбигейл Спенсер, Анджела Бассетт, Розмари Харрис, Джордж Тулиатос-Описание: Два секретных агента, которые к тому же и закадычные друзья, влюбляются в одну и ту же женщину, но ни один не желает уступить другому.-Доп. информация: UNRATED версия длиннее на 7 минут! Полный перевод-kinopoisk
Сэмпл: http://multi-up.com/715507-Тип релиза: BDRip 720p
Контейнер: MKV
Видео: 9 947 Kbps, 1 280*534(2.40:1), 23.976 fps, avc
Аудио 1: Rus, 775 kbps, 48.0 khz, 24 bits, 6 ch, DTS
Аудио 2: Ukrainian, 448 kbps, 48.0 khz, 16 bits, 6 ch, ac3
Аудио 3: English, 1 510 kbps, 48.0 khz, 24 bits, 6 ch, dts-

MediaInfo

General
Unique ID : 218549720941841474972661304138017028039 (0xA46B252B2AEDB112AB804A868FF037C7)
Complete name : D:\Новая папка (2)\This Means War.mkv
Format : Matroska
Format version : Version 2
File size : 9.38 GiB
Duration : 1h 44mn
Overall bit rate : 12.9 Mbps
Encoded date : UTC 2012-06-08 08:21:53
Writing application : mkvmerge v4.9.1 ('Ich will') built on Jul 11 2011 23:53:15
Writing library : libebml v1.2.1 + libmatroska v1.1.1
Video
ID : 1
Format : AVC
Format/Info : Advanced Video Codec
Format profile : High@L4.1
Format settings, CABAC : Yes
Format settings, ReFrames : 12 frames
Codec ID : V_MPEG4/ISO/AVC
Duration : 1h 44mn
Bit rate : 9 947 Kbps
Width : 1 280 pixels
Height : 534 pixels
Display aspect ratio : 2.40:1
Frame rate : 23.976 fps
Color space : YUV
Chroma subsampling : 4:2:0
Bit depth : 8 bits
Scan type : Progressive
Bits/(Pixel*Frame) : 0.607
Stream size : 7.23 GiB (77%)
Title : This Means War (2012)
Writing library : x264 core 124 r2197 69a0443
Encoding settings : cabac=1 / ref=12 / deblock=1:-1:-1 / analyse=0x3:0x133 / me=umh / subme=10 / psy=1 / psy_rd=1.00:0.00 / mixed_ref=1 / me_range=24 / chroma_me=1 / trellis=2 / 8x8dct=1 / cqm=0 / deadzone=21,11 / fast_pskip=0 / chroma_qp_offset=-2 / threads=12 / sliced_threads=0 / nr=0 / decimate=0 / interlaced=0 / bluray_compat=0 / constrained_intra=0 / bframes=8 / b_pyramid=2 / b_adapt=2 / b_bias=0 / direct=3 / weightb=1 / open_gop=0 / weightp=2 / keyint=250 / keyint_min=23 / scenecut=40 / intra_refresh=0 / rc_lookahead=60 / rc=crf / mbtree=1 / crf=17.5 / qcomp=0.80 / qpmin=0 / qpmax=69 / qpstep=4 / ip_ratio=1.40 / aq=1:0.80
Language : English
Default : Yes
Forced : Yes
Audio #1
ID : 2
Format : DTS
Format/Info : Digital Theater Systems
Codec ID : A_DTS
Duration : 1h 44mn
Bit rate mode : Constant
Bit rate : 755 Kbps
Channel(s) : 6 channels
Channel positions : Front: L C R, Side: L R, LFE
Sampling rate : 48.0 KHz
Bit depth : 24 bits
Compression mode : Lossy
Stream size : 561 MiB (6%)
Title : DTS 5.1 @ 768 kbps - Dub, BD EUR
Language : Russian
Default : Yes
Forced : Yes
Audio #2
ID : 3
Format : AC-3
Format/Info : Audio Coding 3
Mode extension : CM (complete main)
Format settings, Endianness : Big
Codec ID : A_AC3
Duration : 1h 44mn
Bit rate mode : Constant
Bit rate : 448 Kbps
Channel(s) : 6 channels
Channel positions : Front: L C R, Side: L R, LFE
Sampling rate : 48.0 KHz
Bit depth : 16 bits
Compression mode : Lossy
Stream size : 333 MiB (3%)
Title : DD 5.1 @ 448 kbps - Dub, BD EUR
Language : Ukrainian
Default : No
Forced : No
Audio #3
ID : 4
Format : DTS
Format/Info : Digital Theater Systems
Codec ID : A_DTS
Duration : 1h 44mn
Bit rate mode : Constant
Bit rate : 1 510 Kbps
Channel(s) : 6 channels
Channel positions : Front: L C R, Side: L R, LFE
Sampling rate : 48.0 KHz
Bit depth : 24 bits
Compression mode : Lossy
Delay relative to video : 11ms
Stream size : 1.10 GiB (12%)
Title : DTS 5.1 @ 1536 kbps
Language : English
Default : No
Forced : No
Text #1
ID : 5
Format : UTF-8
Codec ID : S_TEXT/UTF8
Codec ID/Info : UTF-8 Plain Text
Title : Forced
Language : Russian
Default : No
Forced : No
Text #2
ID : 6
Format : UTF-8
Codec ID : S_TEXT/UTF8
Codec ID/Info : UTF-8 Plain Text
Title : Full
Language : Russian
Default : No
Forced : No
Text #3
ID : 7
Format : UTF-8
Codec ID : S_TEXT/UTF8
Codec ID/Info : UTF-8 Plain Text
Title : Forced
Language : English
Default : No
Forced : No
Text #4
ID : 8
Format : UTF-8
Codec ID : S_TEXT/UTF8
Codec ID/Info : UTF-8 Plain Text
Language : English
Default : No
Forced : No
Menu
00:00:00.000 : en:00:00:00.000
00:06:05.824 : en:00:06:05.824
00:11:14.257 : en:00:11:14.257
00:15:22.463 : en:00:15:22.463
00:18:37.033 : en:00:18:37.033
00:22:51.203 : en:00:22:51.203
00:24:51.365 : en:00:24:51.365
00:28:22.701 : en:00:28:22.701
00:32:03.713 : en:00:32:03.713
00:37:39.466 : en:00:37:39.466
00:42:10.820 : en:00:42:10.820
00:45:56.253 : en:00:45:56.253
00:48:48.676 : en:00:48:48.676
00:52:16.133 : en:00:52:16.133
00:57:02.878 : en:00:57:02.878
01:03:23.258 : en:01:03:23.258
01:08:42.035 : en:01:08:42.035
01:16:30.586 : en:01:16:30.586
01:19:47.241 : en:01:19:47.241
01:23:12.362 : en:01:23:12.362
01:28:23.089 : en:01:28:23.089
01:33:12.170 : en:01:33:12.170
01:37:07.655 : en:01:37:07.655
01:38:50.049 : en:01:38:50.049

Скриншоты

Скачать

Скачать торрент!

Как скачивать? · Что такое торрент? · Рейтинг и ограничения

Сайт не распространяет и не хранит электронные версии произведений, а лишь предоставляет доступ к создаваемому пользователями каталогу ссылок на торрент-файлы, которые содержат только списки хеш-сумм

[Профиль] [ЛС]
Показать сообщения:    
Ответить на тему

Текущее время: Сегодня 08:59

Часовой пояс: GMT + 4



Вы не можете начинать темы
Вы не можете отвечать на сообщения
Вы не можете редактировать свои сообщения
Вы не можете удалять свои сообщения
Вы не можете голосовать в опросах
Вы не можете прикреплять файлы к сообщениям
Вы не можете скачивать файлы