Американский пирог: Все в сборе / American Reunion (Джон Харвитц, Хейден Шлоссберг / John Harvitts, Hayden Schlossberg) [2012 г., Комедия, DVDRip-AVC] Dub R5 + Original Eng

Ответить на тему
 
Автор Сообщение

Kraft2727 ®

Стаж: 4 года 6 месяцев

Сообщений: 454

Пост Пост: #1 от 08-Авг-2012 16:42

[Цитировать]

Американский пирог: Все в сборе / American Reunion- Год выпуска: 2012
Страна: США
Жанр: Комедия
Продолжительность: 01:52:52
Перевод: Профессиональный (дублированный) (Лицензия)
Cубтитры: Нет
Оригинальная аудиодорожка: Английский-Режиссер: Джон Харвитц, Хейден Шлоссберг / John Harvitts, Hayden Schlossberg-В ролях: Джейсон Биггз, Элисон Хэннигэн, Крис Клейн, Томас Иэн Николас, Тара Рид, Шонн Уильям Скотт, Мена Сувари, Эдди Кэй Томас, Джон Чо, Дженнифер Кулидж-Описание: Герои «Американского пирога» встречаются вновь спустя 10 лет. Они докажут, что даже время и расстояние не в силах разрушить их дружбу. Летом 1999-го четверо мичиганских парней решили расстаться с невинностью. Прошли годы, и теперь друзья вернулись домой уже повзрослевшими, чтобы вспомнить прошлое и оторваться на полную катушку.- - 7.5-Сэмпл-Качество: DVDRip-AVC
Формат: MKV
Видео: AVC, 2318 Кбит/сек, 1024х554 (1,85:1), 23,976 кадра/сек
Аудио 1: AC3; 48,0 КГц; 448 Кбит/сек; 6ch (Front: L, R) - DUB
Аудио 2: AC3; 48,0 КГц; 384 Кбит/сек; 6ch (Front: L, R) - ENG-

MediaInfo

Общее
Уникальный идентификатор : 233938378970496333202863600518993659306 (0xAFFEE49668DD7C109048EB82DD7DC5AA)
Полное имя : E:\Загрузка\Amerikanskij.Pirog.Vse.v.Sbore.2012.x264.BDRip.AVC.mkv
Формат : Matroska
Версия формата : Version 2
Размер файла : 2,48 Гбайт
Продолжительность : 1 ч. 52 м.
Общий поток : 3149 Кбит/сек
Дата кодирования : UTC 2012-08-08 05:31:39
Программа кодирования : mkvmerge v5.2.1 ('A Far Off Place') built on Feb 6 2012 10:08:15
Библиотека кодирования : libebml v1.2.3 + libmatroska v1.3.0
Видео
Идентификатор : 1
Формат : AVC
Формат/Информация : Advanced Video Codec
Профиль формата : High@L4.1
Параметр CABAC формата : Да
Параметр ReFrames формата : 10 кадров
Режим смешивания : Header stripping
Идентификатор кодека : V_MPEG4/ISO/AVC
Продолжительность : 1 ч. 52 м.
Битрейт : 2318 Кбит/сек
Ширина : 1024 пикселя
Высота : 554 пикселя
Соотношение сторон : 1,85:1
Частота кадров : 23,976 кадра/сек
Цветовое пространство : YUV
Субдискретизация насыщенности : 4:2:0
Битовая глубина : 8 бит
Тип развёртки : Прогрессивная
Бит/(Пиксели*Кадры) : 0.170
Размер потока : 1,78 Гбайт (72%)
Заголовок : Amerikanskiy pirog: Vse v sbore / American Reunion
Библиотека кодирования : x264 core 125 r2200 999b753
Настройки программы : cabac=1 / ref=10 / deblock=1:-3:-3 / analyse=0x3:0x133 / me=umh / subme=10 / psy=1 / psy_rd=1.00:0.10 / mixed_ref=1 / me_range=48 / chroma_me=1 / trellis=2 / 8x8dct=1 / cqm=0 / deadzone=21,11 / fast_pskip=0 / chroma_qp_offset=-3 / threads=6 / lookahead_threads=1 / sliced_threads=0 / nr=0 / decimate=1 / interlaced=0 / bluray_compat=0 / constrained_intra=0 / bframes=6 / b_pyramid=2 / b_adapt=2 / b_bias=0 / direct=3 / weightb=1 / open_gop=0 / weightp=2 / keyint=240 / keyint_min=22 / scenecut=40 / intra_refresh=0 / rc_lookahead=40 / rc=2pass / mbtree=1 / bitrate=2318 / ratetol=1.0 / qcomp=0.60 / qpmin=10 / qpmax=51 / qpstep=4 / cplxblur=20.0 / qblur=0.5 / ip_ratio=1.40 / aq=1:1.00
Default : Да
Forced : Нет
Аудио #1
Идентификатор : 2
Формат : AC-3
Формат/Информация : Audio Coding 3
Расширение режима : CM (complete main)
Параметр Endianness формата : Big
Режим смешивания : Header stripping
Идентификатор кодека : A_AC3
Продолжительность : 1 ч. 52 м.
Вид битрейта : Постоянный
Битрейт : 448 Кбит/сек
Каналы : 6 каналов
Расположение каналов : Front: L C R, Side: L R, LFE
Частота : 48,0 КГц
Битовая глубина : 16 бит
Метод сжатия : С потерями
Размер потока : 362 Мбайт (14%)
Язык : Russian
Default : Да
Forced : Нет
Аудио #2
Идентификатор : 3
Формат : AC-3
Формат/Информация : Audio Coding 3
Расширение режима : CM (complete main)
Параметр Endianness формата : Big
Режим смешивания : Header stripping
Идентификатор кодека : A_AC3
Продолжительность : 1 ч. 52 м.
Вид битрейта : Постоянный
Битрейт : 384 Кбит/сек
Каналы : 6 каналов
Расположение каналов : Front: L C R, Side: L R, LFE
Частота : 48,0 КГц
Битовая глубина : 16 бит
Метод сжатия : С потерями
Размер потока : 310 Мбайт (12%)
Язык : English
Default : Нет
Forced : Нет
Меню
00:00:00.000 : en:
00:04:48.746 : en:
00:08:58.287 : en:
00:14:26.240 : en:
00:18:52.172 : en:
00:23:37.624 : en:
00:27:29.147 : en:
00:32:01.627 : en:
00:40:35.849 : en:
00:45:38.985 : en:
00:52:31.356 : en:
00:59:34.779 : en:
01:05:54.323 : en:
01:10:09.787 : en:
01:14:03.813 : en:
01:23:02.185 : en:
01:27:57.063 : en:
01:36:03.215 : en:
01:42:07.746 : en:
01:48:11.943 : en:

Скриншоты

Скачать

Скачать торрент!

Как скачивать? · Что такое торрент? · Рейтинг и ограничения

Сайт не распространяет и не хранит электронные версии произведений, а лишь предоставляет доступ к создаваемому пользователями каталогу ссылок на торрент-файлы, которые содержат только списки хеш-сумм

[Профиль] [ЛС]
Показать сообщения:    
Ответить на тему

Текущее время: Сегодня 21:43

Часовой пояс: GMT + 4



Вы не можете начинать темы
Вы не можете отвечать на сообщения
Вы не можете редактировать свои сообщения
Вы не можете удалять свои сообщения
Вы не можете голосовать в опросах
Вы не можете прикреплять файлы к сообщениям
Вы не можете скачивать файлы