Боевой конь / War Horse (Стивен Спилберг / Steven Spielberg) [2011 г., драма, военный, история, BDRip] Dub + original (eng) + sub (rus, eng)

Ответить на тему
 
Автор Сообщение

Kraft2727 ®

Стаж: 4 года 6 месяцев

Сообщений: 454

Пост Пост: #1 от 06-Авг-2012 20:19

[Цитировать]

Боевой конь
War Horse
«В огне войны. В любящем сердце. Живет надежда.»
- Год выпуска: 2011
Страна: США
Жанр: драма, военный, история
Продолжительность: 02:26:39
Перевод: Профессиональный (полное дублирование)
Субтитры: русские (Полные, by VoroninE), английские (Full, by VoroninE),
Оригинальная аудио дорожка: английский-Режиссер: Стивен Спилберг / Steven Spielberg-В ролях:

Джереми Ирвин (Albert Narracott), Том Хиддлстон (Captain Nicholls), Питер Муллан (Ted Narracott), Дэвид Тьюлис (Lyons), Эмили Уотсон (Rose Narracott), Нильс Ареструп (Grandfather), Бенедикт Камбербэтч (Maj. Jamie Stewart), Селин Бакенс (Emilie), Тоби Кеббелл (Geordie Soldier), Патрик Кеннеди (Lt. Charlier Waverly), Леонард Кэроу (Michael), Дэвид Кросс (Gunther)-Дублёры: Артём Николаев (Albert Narracott), Андрей Лёвин, Валерий Кухарешин (Lyons), Лариса Луппиан (Rose Narracott), Дмитрий Стрелков (Maj. Jamie Stewart)-Описание: История невероятной дружбы мальчика Альберта и коня Джоуи.
Когда начинается Первая мировая, и Джоуи отправляют вместе с кавалерийским полком на поля сражений Франции, Альберт, несмотря на слишком юный для военной службы возраст, все равно уходит на фронт, чтобы найти и спасти друга.-

MPAA: PG-13 - Детям до 13 лет просмотр не желателен-Раздача от:
Качество: BDRip/1080p {by IBodyB}
Контейнер: MKV
Аудио кодек: AC3
Видео: 1920x800, AVC, 23,976 fps, 9801 kbps
Аудио №1: русский / AC3 / 5.1 / 48 kHz / 640 kbps / 16 bit || Профессиональный (полное дублирование, bd cee)
Аудио №2: английский / DTS / 5.1 / 48 kHz / 1510 kbps / 24 bit
Навигация по главам: есть-

log x264 test -crf 18

---[NoImage] x264 [info]: frame I:61 Avg QP:16.25 size:178872
---[NoImage] x264 [info]: frame P:1095 Avg QP:17.61 size: 83634
---[NoImage] x264 [info]: frame B:3928 Avg QP:20.48 size: 39134
---[NoImage] x264 [info]: consecutive B-frames: 2.7% 2.0% 9.3% 17.1% 15.9% 42.8% 4.7% 2.0% 3.4%
---[NoImage] x264 [info]: mb I I16..4: 17.7% 66.4% 15.9%
---[NoImage] x264 [info]: mb P I16..4: 6.0% 17.7% 3.1% P16..4: 28.4% 31.3% 8.4% 0.0% 0.0% skip: 5.0%
---[NoImage] x264 [info]: mb B I16..4: 3.5% 2.7% 0.6% B16..8: 33.9% 18.1% 2.7% direct: 8.5% skip:30.0% L0:42.1% L1:41.8% BI:16.2%
---[NoImage] x264 [info]: 8x8 transform intra:54.7% inter:42.8%
---[NoImage] x264 [info]: direct mvs spatial:99.4% temporal:0.6%
---[NoImage] x264 [info]: coded y,uvDC,uvAC intra: 90.8% 82.6% 64.6% inter: 32.8% 24.6% 5.6%
---[NoImage] x264 [info]: i16 v,h,dc,p: 6% 5% 38% 51%
---[NoImage] x264 [info]: i8 v,h,dc,ddl,ddr,vr,hd,vl,hu: 7% 7% 13% 10% 13% 12% 13% 12% 15%
---[NoImage] x264 [info]: i4 v,h,dc,ddl,ddr,vr,hd,vl,hu: 9% 8% 26% 7% 10% 9% 10% 8% 13%
---[NoImage] x264 [info]: i8c dc,h,v,p: 51% 20% 15% 14%
---[NoImage] x264 [info]: Weighted P-Frames: Y:2.0% UV:0.9%
---[NoImage] x264 [info]: ref P L0: 49.4% 9.6% 22.9% 8.6% 8.5% 0.9% 0.0%
---[NoImage] x264 [info]: ref B L0: 78.2% 16.1% 4.4% 1.3%
---[NoImage] x264 [info]: ref B L1: 92.8% 7.2%
---[NoImage] x264 [info]: kb/s:9666.26
---[NoImage] encoded 5084 frames, 6.25 fps, 9666.29 kb/s
--[Information] Final statistics
---[Information] [18.03.2012 23:29:00] Constant Quality Mode: Quality 18 computed...

log x264 encoding

---[NoImage] x264 [info]: frame I:1308 Avg QP:17.23 size:174850
---[NoImage] x264 [info]: frame P:45588 Avg QP:19.06 size: 75368
---[NoImage] x264 [info]: frame B:164088 Avg QP:19.97 size: 43331
---[NoImage] x264 [info]: consecutive B-frames: 1.9% 2.3% 8.3% 18.9% 15.6% 45.6% 4.5% 1.2% 1.7%
---[NoImage] x264 [info]: mb I I16..4: 23.2% 60.4% 16.4%
---[NoImage] x264 [info]: mb P I16..4: 6.4% 15.5% 2.0% P16..4: 31.3% 31.3% 8.0% 0.0% 0.0% skip: 5.6%
---[NoImage] x264 [info]: mb B I16..4: 4.0% 2.6% 0.4% B16..8: 33.4% 19.1% 2.9% direct:11.2% skip:26.3% L0:41.3% L1:40.0% BI:18.8%
---[NoImage] x264 [info]: 8x8 transform intra:51.0% inter:40.6%
---[NoImage] x264 [info]: direct mvs spatial:99.0% temporal:1.0%
---[NoImage] x264 [info]: coded y,uvDC,uvAC intra: 92.0% 82.1% 61.6% inter: 37.8% 31.5% 11.1%
---[NoImage] x264 [info]: i16 v,h,dc,p: 6% 5% 43% 47%
---[NoImage] x264 [info]: i8 v,h,dc,ddl,ddr,vr,hd,vl,hu: 7% 8% 11% 9% 13% 12% 13% 12% 15%
---[NoImage] x264 [info]: i4 v,h,dc,ddl,ddr,vr,hd,vl,hu: 9% 8% 21% 7% 11% 10% 12% 9% 14%
---[NoImage] x264 [info]: i8c dc,h,v,p: 50% 21% 16% 14%
---[NoImage] x264 [info]: Weighted P-Frames: Y:3.6% UV:2.0%
---[NoImage] x264 [info]: ref P L0: 46.7% 9.9% 25.1% 8.3% 8.9% 1.0% 0.0%
---[NoImage] x264 [info]: ref B L0: 77.7% 16.7% 4.3% 1.4%
---[NoImage] x264 [info]: ref B L1: 93.4% 6.6%
---[NoImage] x264 [info]: kb/s:9795.36
---[NoImage] encoded 210984 frames, 6.85 fps, 9795.36 kb/s
--[Information] Final statistics
---[Information] [21.03.2012 0:29:31] Video Bitrate Desired: 9801 kbit/s

Media Info

Формат : Matroska
Версия формата : Version 2
Размер файла : 12,2 Гбайт
Продолжительность : 2 ч. 26 м.
Общий поток : 11,9 Мбит/сек
Название фильма : Боевой конь__War Horse [2011.BDRemux.Dub.Eng.Subs]-HQFans
Дата кодирования : UTC 2012-05-07 05:13:27
Программа кодирования : mkvmerge v5.5.0 ('Healer') built on Apr 6 2012 21:43:24
Библиотека кодирования : libebml v1.2.3 + libmatroska v1.3.0
Видео
Идентификатор : 1
Формат : AVC
Формат/Информация : Advanced Video Codec
Профиль формата : High@L4.1
Параметр CABAC формата : Да
Параметр ReFrames формата : 5 кадров
Идентификатор кодека : V_MPEG4/ISO/AVC
Продолжительность : 2 ч. 26 м.
Битрейт : 9801 Кбит/сек
Ширина : 1920 пикселей
Высота : 800 пикселей
Соотношение сторон : 2,40:1
Частота кадров : 23,976 кадра/сек
Цветовое пространство : YUV
Субдискретизация насыщенности : 4:2:0
Битовая глубина : 8 бит
Тип развёртки : Прогрессивная
Бит/(Пиксели*Кадры) : 0.266
Размер потока : 9,79 Гбайт (80%)
Заголовок : Rip by IBodyB
Библиотека кодирования : x264 core 122 r2184 5c85e0a
Настройки программы : cabac=1 / ref=5 / deblock=1:-3:-3 / analyse=0x3:0x113 / me=umh / subme=11 / psy=1 / psy_rd=1.00:0.10 / mixed_ref=1 / me_range=48 / chroma_me=1 / trellis=2 / 8x8dct=1 / cqm=0 / deadzone=21,11 / fast_pskip=0 / chroma_qp_offset=-3 / threads=12 / sliced_threads=0 / nr=0 / decimate=0 / interlaced=0 / bluray_compat=0 / constrained_intra=0 / bframes=8 / b_pyramid=2 / b_adapt=2 / b_bias=0 / direct=3 / weightb=1 / open_gop=0 / weightp=2 / keyint=240 / keyint_min=22 / scenecut=40 / intra_refresh=0 / rc_lookahead=40 / rc=2pass / mbtree=0 / bitrate=9801 / ratetol=1.0 / qcomp=0.60 / qpmin=0 / qpmax=69 / qpstep=4 / cplxblur=20.0 / qblur=0.5 / vbv_maxrate=40000 / vbv_bufsize=30000 / nal_hrd=none / ip_ratio=1.40 / pb_ratio=1.30 / aq=1:0.80
Язык : English
Default : Да
Forced : Нет
Основные цвета : BT.709-5, BT.1361, IEC 61966-2-4, SMPTE RP177
Характеристики трансфера : BT.709-5, BT.1361
Коэффициенты матрицы : BT.709-5, BT.1361, IEC 61966-2-4 709, SMPTE RP177
Аудио #1
Идентификатор : 2
Формат : AC-3
Формат/Информация : Audio Coding 3
Расширение режима : CM (complete main)
Параметр Endianness формата : Big
Идентификатор кодека : A_AC3
Продолжительность : 2 ч. 26 м.
Вид битрейта : Постоянный
Битрейт : 640 Кбит/сек
Каналы : 6 каналов
Расположение каналов : Front: L C R, Side: L R, LFE
Частота : 48,0 КГц
Битовая глубина : 16 бит
Метод сжатия : С потерями
Размер потока : 671 Мбайт (5%)
Заголовок : Dub {CEE} [AC3 5.1@640kbps/16-bit]
Язык : Russian
Default : Да
Forced : Нет
Аудио #2
Идентификатор : 3
Формат : DTS
Формат/Информация : Digital Theater Systems
Идентификатор кодека : A_DTS
Продолжительность : 2 ч. 26 м.
Вид битрейта : Постоянный
Битрейт : 1510 Кбит/сек
Каналы : 6 каналов
Расположение каналов : Front: L C R, Side: L R, LFE
Частота : 48,0 КГц
Битовая глубина : 24 бит
Метод сжатия : С потерями
Размер потока : 1,55 Гбайт (13%)
Заголовок : Original [DTS 5.1@1510kbps/16-bit]
Язык : English
Default : Нет
Forced : Нет
Текст #1
Идентификатор : 4
Формат : UTF-8
Идентификатор кодека : S_TEXT/UTF8
Идентификатор кодека/Информация : UTF-8 Plain Text
Заголовок : Полные, by VoroninE
Язык : Russian
Default : Да
Forced : Нет
Текст #2
Идентификатор : 5
Формат : UTF-8
Идентификатор кодека : S_TEXT/UTF8
Идентификатор кодека/Информация : UTF-8 Plain Text
Заголовок : Full, by VoroninE
Язык : English
Default : Нет
Forced : Нет
Меню
00:00:00.000 : :Chapter 01
00:04:31.104 : :Chapter 02
00:09:31.320 : :Chapter 03
00:13:57.002 : :Chapter 04
00:17:45.230 : :Chapter 05
00:22:29.097 : :Chapter 06
00:29:16.963 : :Chapter 07
00:34:17.180 : :Chapter 08
00:37:49.934 : :Chapter 09
00:41:30.196 : :Chapter 10
00:47:19.002 : :Chapter 11
00:51:48.814 : :Chapter 12
00:56:03.151 : :Chapter 13
01:01:19.175 : :Chapter 14
01:04:04.048 : :Chapter 15
01:05:51.030 : :Chapter 16
01:14:04.565 : :Chapter 17
01:18:01.009 : :Chapter 18
01:25:34.379 : :Chapter 19
01:29:48.007 : :Chapter 20
01:35:29.682 : :Chapter 21
01:45:23.275 : :Chapter 22
01:51:06.659 : :Chapter 23
02:00:06.157 : :Chapter 24
02:07:38.275 : :Chapter 25
02:15:12.270 : :Chapter 26
02:18:10.949 : :Chapter 27
02:26:39.540 : :Chapter 28

Скриншоты

Скачать

Скачать торрент!

Как скачивать? · Что такое торрент? · Рейтинг и ограничения

Сайт не распространяет и не хранит электронные версии произведений, а лишь предоставляет доступ к создаваемому пользователями каталогу ссылок на торрент-файлы, которые содержат только списки хеш-сумм

[Профиль] [ЛС]
Показать сообщения:    
Ответить на тему

Текущее время: Сегодня 15:55

Часовой пояс: GMT + 4



Вы не можете начинать темы
Вы не можете отвечать на сообщения
Вы не можете редактировать свои сообщения
Вы не можете удалять свои сообщения
Вы не можете голосовать в опросах
Вы не можете прикреплять файлы к сообщениям
Вы не можете скачивать файлы