Защитник / Safe (Боаз Якин) [2012 г., Боевик, криминал, BDRip]

Ответить на тему
 
Автор Сообщение

adagio24 ®

Стаж: 5 лет 3 месяца

Сообщений: 2

Откуда: Украина

Пост Пост: #1 от 20-Июл-2012 22:55

[Цитировать]

Защитник / Safe
Год выпуска: 2012
Страна: США
Жанр: Боевик, криминал
Бюджет: $30 000 000
Продолжительность: 01:34:08
Перевод: Профессиональный (полное дублирование)
Режиссер: Боаз Якин
В ролях: Джейсон Стэтем, Катрин Чан, Роберт Джон Берк, Джеймс Хонг, Энсон Маунт, Крис Сарандон, Сандор Текси, Джозеф Сикора, Регги Ли, Джеймс Колби, Мэтт О’Тул, Джек Гуолтни, Бэрри Брэдфорд, Джей Джанноне, Джеймс Толберт III, Дэнни Лэнг, Джулиан Мазал
Описание: Бывший агент элитных спецслужб случайно спасает из цепких лап мафии гениальную девочку, которой известен код от сейфа китайских Триад. Теперь за ней идет охота и спасти её от всех мерзавцев Нью-Йорка, включая азиатских ассасинов и коррумпированных полицейских, может только Профессионал…
Качество: BDRip
Формат: MKV
Видео кодек: MPEG4
Аудио кодек: DTS
Видео: Matroska, 5500 Кбит/с, 1280х544, 24.000 fps
Аудио: DTS, 6 ch - Front: L C R, Side: L R, LFE, 1510 Кбит/с, 48.0 KHz

MediaInfo

General
Format : Matroska
File size : 4.37 GiB
Duration : 1h 34mn
Overall bit rate : 6 642 Kbps
Encoded date : UTC 2012-05-28 17:17:57
Writing application : mkvmerge v4.9.1 ('Ich will') ñáîðêà îò Jul 11 2011 23:53:15
Writing library : libebml v1.2.1 + libmatroska v1.1.1
Video #1
ID : 1
Format : AVC
Format/Info : Advanced Video Codec
Format profile : High@L3.1
Format settings, CABAC : Yes
Format settings, ReFrames : 4 frames
Muxing mode : Container profile=Unknown@3.1
Codec ID : V_MPEG4/ISO/AVC
Duration : 1h 34mn
Bit rate : 5 000 Kbps
Nominal bit rate : 5 138 Kbps
Width : 1 280 pixels
Height : 544 pixels
Display aspect ratio : 2.35:1
Frame rate : 24.000 fps
Resolution : 8 bits
Colorimetry : 4:2:0
Scan type : Progressive
Bits/(Pixel*Frame) : 0.299
Stream size : 3.29 GiB (75%)
Writing library : x264 core 116 r2044 392e762
Audio #2
ID : 2
Format : DTS
Format/Info : Digital Theater Systems
Codec ID : A_DTS
Duration : 1h 34mn
Bit rate mode : Constant
Bit rate : 1 510 Kbps
Channel(s) : 6 channels
Channel positions : Front: L C R, Side: L R, LFE
Sampling rate : 48.0 KHz
Resolution : 24 bits
Stream size : 1 017 MiB (23%)

Скриншоты






Скачать

Скачать торрент!

Как скачивать? · Что такое торрент? · Рейтинг и ограничения

Сайт не распространяет и не хранит электронные версии произведений, а лишь предоставляет доступ к создаваемому пользователями каталогу ссылок на торрент-файлы, которые содержат только списки хеш-сумм

[Профиль] [ЛС]
Показать сообщения:    
Ответить на тему

Текущее время: Сегодня 16:05

Часовой пояс: GMT + 4



Вы не можете начинать темы
Вы не можете отвечать на сообщения
Вы не можете редактировать свои сообщения
Вы не можете удалять свои сообщения
Вы не можете голосовать в опросах
Вы не можете прикреплять файлы к сообщениям
Вы не можете скачивать файлы