Хроника / Chronicle (Джошуа Транк / Joshua Trank) [2012, США, ЮАР, фантастика, боевик, триллер, HDRip] [Director's Cut] DUB + Original (Eng) + Subs (rus,eng)

Ответить на тему
 
Автор Сообщение

user ®

Стаж: 7 лет 7 месяцев

Сообщений: 20008

Пост Пост: #1 от 20-Июл-2012 22:33

[Цитировать]

Хроника / CHRONICLE
Режиссёрская версия / Director's Cut
«На что способен ты?»
-Страна: США, ЮАР
Жанр: фантастика, боевик, триллер
Год выпуска: 2012
Продолжительность: 01:29:36-Перевод: профессиональный (полное дублирование) лицензия
Субтитры: русские (Forced+Full) + английские (Full) отдельно
Оригинальная аудиодорожка: английский-Режиссёр: Джошуа Транк / Joshua Trank-В ролях: Дэйн ДеХаан / Dane DeHaan (Andrew Detmer), Алекс Расселл / Alex Russell (Matt Garetty), Майкл Б. Джордан / Michael B. Jordan (Steve Montgomery), Майкл Келли / Michael Kelly (Richard Detmer), Эшли Хиншоу / Ashley Hinshaw (Casey Letter), Бо Петерсен / Bo Petersen (Karen Detmer), Анна Вуд / Anna Wood (Monica), Руди Малкольм / Rudi Malcolm (Wayne), Люк Тайлер / Luke Tyler (Sean), Кристал-Донна Робертс / Crystal-Donna Roberts (Samantha, (в титрах: Crystal Donna Roberts)), Эдриан Коллинз / Adrian Collins (Costly), Грант Пауэлл / Grant Powell (Howard).-Описание:
Три школьника получают супер способности после обнаружения упавшего метеорита. Скоро они попадут в водоворот событий, в котором откроются их темные стороны.
-7.2/10 (59721) 6.780 (13342)-Качество видео: HDRip
Формат файла: AVI-Видео: XviD, 704x384 (16:9), 23.976 fps, 2363 kbps avg, 0.365 bit/pixel
Аудио 1: 48 kHz, AC3 Dolby Digital, 3/2 (L,C,R,l,r) + LFE ch, 448 kbps avg (Rus DUB)
Аудио 2: 48 kHz, AC3 Dolby Digital, 3/2 (L,C,R,l,r) + LFE ch, 448 kbps avg (Original Eng)
Формат субтитров: softsub (SRT)-

MediaInfo

Общее
Полное имя : D:\Chronicle.2012.DUAL.Director's Cut.XviD.AC3.HDRip._by.ZNG505\Chronicle.2012.DUAL.Director's Cut.XviD.AC3.HDRip.avi
Формат : AVI
Формат/Информация : Audio Video Interleave
Профиль формата : OpenDML
Размер файла : 2,05 Гбайт
Продолжительность : 1 ч. 29 м.
Общий поток : 3277 Кбит/сек
Программа кодирования : VirtualDubModRus 1.5.10.2 (build 2542/release)
Библиотека кодирования : VirtualDubMod build 2542/release
Видео
Идентификатор : 0
Формат : MPEG-4 Visual
Профиль формата : Advanced Simple@L5
Параметр BVOP формата : 2
Параметр QPel формата : Нет
Параметр GMC формата : Без точки перехода
Параметр матрицы формата : Выборочная
Идентификатор кодека : XVID
Идентификатор кодека/Подсказка : XviD
Продолжительность : 1 ч. 29 м.
Битрейт : 2363 Кбит/сек
Ширина : 704 пикселя
Высота : 384 пикселя
Соотношение сторон : 16:9
Частота кадров : 23,976 кадра/сек
Цветовое пространство : YUV
Субдискретизация насыщенности : 4:2:0
Битовая глубина : 8 бит
Тип развёртки : Прогрессивная
Метод сжатия : С потерями
Бит/(Пиксели*Кадры) : 0.365
Размер потока : 1,48 Гбайт (72%)
Библиотека кодирования : XviD 65
Аудио #1
Идентификатор : 1
Формат : AC-3
Формат/Информация : Audio Coding 3
Расширение режима : CM (complete main)
Идентификатор кодека : 2000
Продолжительность : 1 ч. 29 м.
Вид битрейта : Постоянный
Битрейт : 448 Кбит/сек
Каналы : 6 каналов
Расположение каналов : Front: L C R, Side: L R, LFE
Частота : 48,0 КГц
Битовая глубина : 16 бит
Метод сжатия : С потерями
Размер потока : 287 Мбайт (14%)
Выравнивание : Разделение по промежуткам
Продолжительность промежутка : 42 мс. (1,00 видеокадр)
Время предзагрузки промежутка : 500 мс.
Заголовок : Rus DUB
Аудио #2
Идентификатор : 2
Формат : AC-3
Формат/Информация : Audio Coding 3
Расширение режима : CM (complete main)
Идентификатор кодека : 2000
Продолжительность : 1 ч. 29 м.
Вид битрейта : Постоянный
Битрейт : 448 Кбит/сек
Каналы : 6 каналов
Расположение каналов : Front: L C R, Side: L R, LFE
Частота : 48,0 КГц
Битовая глубина : 16 бит
Метод сжатия : С потерями
Размер потока : 287 Мбайт (14%)
Выравнивание : Разделение по промежуткам
Продолжительность промежутка : 42 мс. (1,00 видеокадр)
Время предзагрузки промежутка : 500 мс.
Заголовок : Eng Original

Скриншот c названием фильма

Скриншоты

Скачать

Скачать торрент!

Как скачивать? · Что такое торрент? · Рейтинг и ограничения

Сайт не распространяет и не хранит электронные версии произведений, а лишь предоставляет доступ к создаваемому пользователями каталогу ссылок на торрент-файлы, которые содержат только списки хеш-сумм

[Профиль] [ЛС]
Показать сообщения:    
Ответить на тему

Текущее время: Сегодня 13:34

Часовой пояс: GMT + 4



Вы не можете начинать темы
Вы не можете отвечать на сообщения
Вы не можете редактировать свои сообщения
Вы не можете удалять свои сообщения
Вы не можете голосовать в опросах
Вы не можете прикреплять файлы к сообщениям
Вы не можете скачивать файлы