Папаши без вредных привычек / On ne choisit pas sa famille (Кристиан Клавье / Christian Clavier) [2011, Франция, комедия, приключения, BDRip-AVC] Dub + Fre + Subs (Rus, Eng, Fre)

Ответить на тему
 
Автор Сообщение

user ®

Стаж: 7 лет 7 месяцев

Сообщений: 20008

Пост Пост: #1 от 20-Июл-2012 22:33

[Цитировать]

-Папаши без вредных привычек / On ne choisit pas sa famille- Год выпуска: 2011
Страна: Франция
Жанр: Комедия, приключения
Продолжительность: 01:41:24
Перевод: Профессиональный (полное дублирование) |Лицензия|
Русские субтитры: есть-Режиссер: Кристиан Клавье / Christian Clavier-В ролях: Кристиан Клавье, Жан Рено, Мюриэль Робен, Элена Ногуэрра, Мишель Вюйермоз, Майли Флорентин Дао, Хелен Патаро, Анна Гейлор, Кэролайн Англаде, Софи-Шарлотт Хассон-Описание: Алекс хочет удочерить очаровательную 5 — летнюю малышку Майли, которая живет в Таиланде. Но по законам этой страны приёмные родители должны быть официально зарегистрированной супружеской парой. Алекс подбивает своего брата, Сезара Борньоли, разорившегося автомобильного дилера, на аферу: он должен поехать с супругой Алекс, Ким в Таиланд, изображая её супруга, что бы забрать оттуда девочку. Но трудно найти более непохожих людей, чем Ким и Сезар. А доктор Луиш, опекун девочки, начинает подозревать неладное…-Кинопоиск: 6.4/10 || IMDB: 5.2/10-Релиз группы: -Автор рипа: potroks-Качество: BDRip-AVC [Blu-Ray HDCLUB]
Формат: MKV
Видео кодек: H.264
Аудио кодек: AC3
Видео: 1056x440 (2,40:1), 23,976 кадр/сек, 2309 Кбит/сек, 0.207 bit/pixel
Аудио#1: 48 kHz, AC3 Dolby Digital, 3/2 (L,C,R,l,r) + LFE ch, ~384.00 kbps avg | RUS
Аудио#2: 48 kHz, AC3 Dolby Digital, 3/2 (L,C,R,l,r) + LFE ch, ~384.00 kbps avg | FRE
Субтитры: Русские, английские, французкие (Forced)
- - -

MediaInfo

Papashi.Bez.Vrednyh.Privychek.2011.D.BDRip.x264.potroks.mkv
Format : Matroska
Format version : Version 2
File size : 2.18 GiB
Duration : 1h 41mn
Overall bit rate : 3 077 Kbps
Movie name : -=POTROKS=-
Encoded date : UTC 2012-07-14 02:21:53
Writing application : mkvmerge v5.6.0 ('Kenya Kane') built on May 27 2012 16:44:04
Writing library : libebml v1.2.3 + libmatroska v1.3.0
Video
ID : 1
Format : AVC
Format/Info : Advanced Video Codec
Format profile : High@L4.1
Format settings, CABAC : Yes
Format settings, ReFrames : 9 frames
Codec ID : V_MPEG4/ISO/AVC
Duration : 1h 41mn
Bit rate : 2 309 Kbps
Width : 1 056 pixels
Height : 440 pixels
Display aspect ratio : 2.40:1
Frame rate mode : Variable
Frame rate : 23.976 fps
Color space : YUV
Chroma subsampling : 4:2:0
Bit depth : 8 bits
Scan type : Progressive
Bits/(Pixel*Frame) : 0.207
Stream size : 1.59 GiB (73%)
Title : Papashi.Bez.Vrednyh.Privychek.2011.D.BDRip.x264.potroks
Writing library : x264 core 116 r2019M 9cc407d
Encoding settings : cabac=1 / ref=10 / deblock=1:-2:-1 / analyse=0x3:0x133 / me=umh / subme=9 / psy=1 / psy_rd=1.00:0.15 / mixed_ref=1 / me_range=38 / chroma_me=1 / trellis=1 / 8x8dct=1 / cqm=0 / deadzone=21,13 / fast_pskip=0 / chroma_qp_offset=-3 / threads=8 / sliced_threads=0 / nr=0 / decimate=1 / interlaced=0 / bluray_compat=0 / constrained_intra=0 / bframes=8 / b_pyramid=1 / b_adapt=2 / b_bias=0 / direct=3 / weightb=1 / open_gop=0 / weightp=2 / keyint=230 / keyint_min=23 / scenecut=40 / intra_refresh=0 / rc_lookahead=100 / rc=2pass / mbtree=1 / bitrate=2309 / ratetol=1.0 / qcomp=0.60 / qpmin=10 / qpmax=51 / qpstep=4 / cplxblur=20.0 / qblur=0.5 / ip_ratio=1.37 / aq=1:1.20
Language : French
Default : Yes
Forced : No
Audio #1
ID : 2
Format : AC-3
Format/Info : Audio Coding 3
Mode extension : CM (complete main)
Format settings, Endianness : Big
Codec ID : A_AC3
Duration : 1h 41mn
Bit rate mode : Constant
Bit rate : 384 Kbps
Channel(s) : 6 channels
Channel positions : Front: L C R, Side: L R, LFE
Sampling rate : 48.0 KHz
Bit depth : 16 bits
Compression mode : Lossy
Stream size : 279 MiB (12%)
Title : Dub
Language : Russian
Default : Yes
Forced : Yes
Audio #2
ID : 3
Format : AC-3
Format/Info : Audio Coding 3
Mode extension : CM (complete main)
Format settings, Endianness : Big
Codec ID : A_AC3
Duration : 1h 41mn
Bit rate mode : Constant
Bit rate : 384 Kbps
Channel(s) : 6 channels
Channel positions : Front: L C R, Side: L R, LFE
Sampling rate : 48.0 KHz
Bit depth : 16 bits
Compression mode : Lossy
Stream size : 279 MiB (12%)
Language : French
Default : No
Forced : No
Text #1
ID : 4
Format : UTF-8
Codec ID : S_TEXT/UTF8
Codec ID/Info : UTF-8 Plain Text
Language : Russian
Default : No
Forced : No
Text #2
ID : 5
Format : UTF-8
Codec ID : S_TEXT/UTF8
Codec ID/Info : UTF-8 Plain Text
Title : Forced
Language : French
Default : No
Forced : No
Text #3
ID : 6
Format : UTF-8
Codec ID : S_TEXT/UTF8
Codec ID/Info : UTF-8 Plain Text
Language : English
Default : No
Forced : No
-
Скачать

Скачать торрент!

Как скачивать? · Что такое торрент? · Рейтинг и ограничения

Сайт не распространяет и не хранит электронные версии произведений, а лишь предоставляет доступ к создаваемому пользователями каталогу ссылок на торрент-файлы, которые содержат только списки хеш-сумм

[Профиль] [ЛС]
Показать сообщения:    
Ответить на тему

Текущее время: Сегодня 06:25

Часовой пояс: GMT + 4



Вы не можете начинать темы
Вы не можете отвечать на сообщения
Вы не можете редактировать свои сообщения
Вы не можете удалять свои сообщения
Вы не можете голосовать в опросах
Вы не можете прикреплять файлы к сообщениям
Вы не можете скачивать файлы