Боже, благослови Америку / God Bless America (Боб Голдтуэйт / Bobcat Goldthwait) [2011, США, драма, комедия, криминал, BDRip] DVO (OzzTV) + MVO (R5) + 2x Sub (Rus + Eng) + Original Eng

Ответить на тему
 
Автор Сообщение

user ®

Стаж: 7 лет 7 месяцев

Сообщений: 20008

Пост Пост: #1 от 20-Июл-2012 22:33

[Цитировать]

Боже, благослови Америку / God Bless America
Страна: США
Жанр: драма, комедия, криминал
Год выпуска: 2011
Продолжительность: 01:44:22
Перевод: Перевод:
  • Профессиональный (двухголосый закадровый) - OzzTV - Ирина Воронова и Алексей Серегин
  • Профессиональный (многоголосый закадровый) - R5
Cубтитры: русские + английские
Оригинальная аудиодорожка: английский
Режиссер: Боб Голдтуэйт / Bobcat Goldthwait
В ролях:
Джоэль Мюррей
Тара Барр
Маккензи Брук Смит
Мелинда Пейдж Хэмилтон
Рич МакДональд
Гьюррин Гарднер
Келли Рамдайни
Андреа Харпер
Дэвид Менденхолл
Джулиана Акоста
Описание:
Фрэнк просто выдохся: сосед-невежа, постоянный плач ребенка, глупая болтовня коллег, и в довершение всего — ещё и опухоль мозга. Достав пистолет, уставший от жизни герой находит для себя неожиданного друга и союзника по имени Рокси. Это девушка-студентка, проявляющая нетерпимость к идиотам вокруг и мыслящая в точности, как и Фрэнк. Он даёт ей уроки стрельбы, а она ему — цели, которые нужно поразить.
Доп. информация:

Качество видео: BDRip, исходник - [GOD_BLESS_AMERICA_2011_BD-REMUX_HDCLUB]
Формат видео: AVI
Видео: 720x304 (2.37:1), 23.976 fps, XviD MPEG-4 ~2050 kbps avg, 0.39 bit/pixel
Аудио 1: 48 kHz, AC3 Dolby Digital, 3/2 (L,C,R,l,r) + LFE ch, ~448 kbps - DVO
Аудио 2: 48 kHz, AC3 Dolby Digital, 3/2 (L,C,R,l,r) + LFE ch, ~448 kbps - Eng
Аудио 3: 48 kHz, AC3 Dolby Digital, 2 (L,R) ch, ~192 kbps - R5 - отдельно
Формат субтитров: softsub (SRT)
Сэмпл

MediaInfo

Общее
Полное имя : D:\Torrent\Боже, благослови Америку!\Боже, благослови Америку_2.17_пустой\Боже, благослови Америку_2.17\Боже, благослови Америку_2.17.avi
Формат : AVI
Формат/Информация : Audio Video Interleave
Профиль формата : OpenDML
Размер файла : 2,15 Гбайт
Продолжительность : 1 ч. 44 м.
Общий поток : 2953 Кбит/сек
Программа кодирования : VirtualDubModRus 1.5.10.2 (build 2540/release)
Библиотека кодирования : VirtualDubMod build 2540/release
Видео
Идентификатор : 0
Формат : MPEG-4 Visual
Профиль формата : Advanced Simple@L5
Параметр BVOP формата : 1
Параметр QPel формата : Нет
Параметр GMC формата : Без точки перехода
Параметр матрицы формата : Выборочная
Идентификатор кодека : XVID
Идентификатор кодека/Подсказка : XviD
Продолжительность : 1 ч. 44 м.
Битрейт : 2039 Кбит/сек
Ширина : 720 пикселей
Высота : 304 пикселя
Соотношение сторон : 2,35:1
Частота кадров : 23,976 кадра/сек
Цветовое пространство : YUV
Субдискретизация насыщенности : 4:2:0
Битовая глубина : 8 бит
Тип развёртки : Прогрессивная
Метод сжатия : С потерями
Бит/(Пиксели*Кадры) : 0.389
Размер потока : 1,49 Гбайт (69%)
Библиотека кодирования : XviD 65
Аудио #1
Идентификатор : 1
Формат : AC-3
Формат/Информация : Audio Coding 3
Расширение режима : CM (complete main)
Параметр Endianness формата : Big
Идентификатор кодека : 2000
Продолжительность : 1 ч. 44 м.
Вид битрейта : Постоянный
Битрейт : 448 Кбит/сек
Каналы : 6 каналов
Расположение каналов : Front: L C R, Side: L R, LFE
Частота : 48,0 КГц
Битовая глубина : 16 бит
Метод сжатия : С потерями
Размер потока : 334 Мбайт (15%)
Выравнивание : Разделение по промежуткам
Продолжительность промежутка : 42 мс. (1,00 видеокадр)
Время предзагрузки промежутка : 500 мс.
Аудио #2
Идентификатор : 2
Формат : AC-3
Формат/Информация : Audio Coding 3
Расширение режима : CM (complete main)
Параметр Endianness формата : Big
Идентификатор кодека : 2000
Продолжительность : 1 ч. 44 м.
Вид битрейта : Постоянный
Битрейт : 448 Кбит/сек
Каналы : 6 каналов
Расположение каналов : Front: L C R, Side: L R, LFE
Частота : 48,0 КГц
Битовая глубина : 16 бит
Метод сжатия : С потерями
Размер потока : 334 Мбайт (15%)
Выравнивание : Разделение по промежуткам
Продолжительность промежутка : 42 мс. (1,00 видеокадр)
Время предзагрузки промежутка : 500 мс.
Общее
Полное имя : D:\Torrent\Боже, благослови Америку!\Боже, благослови Америку_2.17_пустой\Боже, благослови Америку_2.17\Боже, благослови Америку_2.17_eng.srt
Размер файла : 276 Кбайт
Общее
Полное имя : D:\Torrent\Боже, благослови Америку!\Боже, благослови Америку_2.17_пустой\Боже, благослови Америку_2.17\Боже, благослови Америку_2.17_MVO_R5.ac3
Формат : AC-3
Формат/Информация : Audio Coding 3
Размер файла : 143 Мбайт
Продолжительность : 1 ч. 44 м.
Режим общего битрейта : Постоянный
Общий поток : 192 Кбит/сек
Аудио
Формат : AC-3
Формат/Информация : Audio Coding 3
Расширение режима : CM (complete main)
Параметр Endianness формата : Big
Продолжительность : 1 ч. 44 м.
Вид битрейта : Постоянный
Битрейт : 192 Кбит/сек
Каналы : 2 канала
Расположение каналов : Front: L R
Частота : 48,0 КГц
Битовая глубина : 16 бит
Метод сжатия : С потерями
Размер потока : 143 Мбайт (100%)
Общее
Полное имя : D:\Torrent\Боже, благослови Америку!\Боже, благослови Америку_2.17_пустой\Боже, благослови Америку_2.17\Боже, благослови Америку_2.17_rus.srt
Размер файла : 173 Кбайт

Скриншот c названием фильма

Скриншоты

Релиз перезалит 15.07.2012 в 9:50 Мск., добавлена озвучка.
Просьба скачать .torrent заново!!!
Скачать

Скачать торрент!

Как скачивать? · Что такое торрент? · Рейтинг и ограничения

Сайт не распространяет и не хранит электронные версии произведений, а лишь предоставляет доступ к создаваемому пользователями каталогу ссылок на торрент-файлы, которые содержат только списки хеш-сумм

[Профиль] [ЛС]
Показать сообщения:    
Ответить на тему

Текущее время: Сегодня 02:12

Часовой пояс: GMT + 4



Вы не можете начинать темы
Вы не можете отвечать на сообщения
Вы не можете редактировать свои сообщения
Вы не можете удалять свои сообщения
Вы не можете голосовать в опросах
Вы не можете прикреплять файлы к сообщениям
Вы не можете скачивать файлы