Красная Бригада: Наследие / Красная фракция: Происхождение / Red Faction: Origins (Майкл Нанкин/ Michael Nankin) [2011, США, фантастика, HDTVRip] MVO (NewLine.TV) + original (eng)

Ответить на тему
 
Автор Сообщение

user ®

Стаж: 7 лет 7 месяцев

Сообщений: 20008

Пост Пост: #1 от 20-Июл-2012 22:33

[Цитировать]

Красная Бригада: Наследие / Красная фракция: Происхождение / Red Faction: Origins Страна: США
Жанр: фантастика
Год выпуска: 2011
Продолжительность: 01:28:13
Перевод: Профессиональный (многоголосый закадровый) Доп.инфо о переводе Озвучено по заказу NewLine.TV
Cубтитры: нет
Оригинальная аудиодорожка: английский
Режиссер: Майкл Нанкин/ Michael Nankin
В ролях: Роберт Патрик, Тэмзин Мерчант, Брайан Смит, Даниэль Николет, Кейт Вернон, Девон Грайе, Гарет Дэвид-Ллойд, Ана Мулвой-Тен, Сара Браун, Роджер Эштон-Гриффитс и др.
Описание: Прошло двадцать пять лет, с тех пор как Алек Мэйсон вел Марсианские Колонии к свободе… и 12 лет, с тех пор как мстительные враги убили его жену, похитили дочь Лиру и оставили сломленного героя с его горем. Для Джейка Мэйсона, единственного сына Алека и офицера войск Красной Бригады, весь мир вывернут наизнанку, когда он узнаёт, что теперь, спустя 12 лет после похищения, его сестра всё еще жива. Планета полна новым сильным врагом, и Джейк выходит на поиски, только чтобы узнать, что его потерянная сестра ─ одна из них… хладнокровный солдат, поклявшаяся уничтожить Красную Бригаду.
Доп. информация: Перевод: нанокузня
Подготовка видео: vadimdexter
Монтаж и работа со звуком: jugin, Alucard
Семпл: http://narod.ru/disk/17190599001/red.faction.origins.hdtv.rus.eng. СПАМ
Качество видео: HDTVRip
Формат видео: AVI
Видео: 720Ч400 (1.80:1), 23.976 fps, XviD build 64 1448 kbps avg, 0.21 bit/pixel
Аудио: 48 kHz, MPEG Layer 3, 2 ch, ~128.00 kbps avg
Аудио №2: 48 kHz, MPEG Layer 3, 2 ch, ~128.00 kbps avg-Релиз: -

MediaInfo

General
Complete name : E:\download\red.faction.origins.hdtv.rus.eng. СПАМ
Format : AVI
Format/Info : Audio Video Interleave
File size : 1.06 GiB
Duration : 1h 28mn
Overall bit rate : 1 719 Kbps
Writing application : VirtualDubMod 1.5.10.2 (build 2542/release)
Writing library : VirtualDubMod build 2542/release
Video
ID : 0
Format : MPEG-4 Visual
Format profile : Advanced Simple@L5
Format settings, BVOP : 1
Format settings, QPel : No
Format settings, GMC : No warppoints
Format settings, Matrix : Default (MPEG)
Codec ID : XVID
Codec ID/Hint : XviD
Duration : 1h 28mn
Bit rate : 1 449 Kbps
Width : 720 pixels
Height : 400 pixels
Display aspect ratio : 16:9
Frame rate : 23.976 fps
Color space : YUV
Chroma subsampling : 4:2:0
Bit depth : 8 bits
Scan type : Progressive
Compression mode : Lossy
Bits/(Pixel*Frame) : 0.210
Stream size : 914 MiB (84%)
Writing library : XviD 64
Audio #1
ID : 1
Format : MPEG Audio
Codec ID : 55
Codec ID/Hint : MP3
Duration : 1h 28mn
Bit rate : 128 Kbps
Channel(s) : 2 channels
Sampling rate : 48.0 KHz
Compression mode : Lossy
Stream size : 80.8 MiB (7%)
Alignment : Split accross interleaves
Interleave, duration : 42 ms (1.00 video frame)
Interleave, preload duration : 504 ms
Audio #2
ID : 2
Format : MPEG Audio
Format version : Version 1
Format profile : Layer 3
Mode : Joint stereo
Mode extension : MS Stereo
Codec ID : 55
Codec ID/Hint : MP3
Duration : 1h 28mn
Bit rate mode : Constant
Bit rate : 128 Kbps
Channel(s) : 2 channels
Sampling rate : 48.0 KHz
Compression mode : Lossy
Stream size : 80.8 MiB (7%)
Alignment : Aligned on interleaves
Interleave, duration : 42 ms (1.00 video frame)
Interleave, preload duration : 504 ms

Скриншот c названием фильма

Скриншоты

Скачать

Скачать торрент!

Как скачивать? · Что такое торрент? · Рейтинг и ограничения

Сайт не распространяет и не хранит электронные версии произведений, а лишь предоставляет доступ к создаваемому пользователями каталогу ссылок на торрент-файлы, которые содержат только списки хеш-сумм

[Профиль] [ЛС]
Показать сообщения:    
Ответить на тему

Текущее время: Сегодня 12:25

Часовой пояс: GMT + 4



Вы не можете начинать темы
Вы не можете отвечать на сообщения
Вы не можете редактировать свои сообщения
Вы не можете удалять свои сообщения
Вы не можете голосовать в опросах
Вы не можете прикреплять файлы к сообщениям
Вы не можете скачивать файлы