Шпион, выйди вон! / Tinker Tailor Soldier Spy (Томас Альфредсон / Tomas Alfredson) [2011, Германия, Франция, Великобритания, триллер, детектив, BDRip] DUB (Лицензия)

Ответить на тему
 
Автор Сообщение

user ®

Стаж: 7 лет 7 месяцев

Сообщений: 20008

Пост Пост: #1 от 20-Июл-2012 20:46

[Цитировать]

Шпион, выйди вон! / TINKER TAILOR SOLDIER SPY
«Секретная информация будет раскрыта»
-Страна: Германия, Франция, Великобритания
Жанр: триллер, детектив
Год выпуска: 2011
Продолжительность: 02:07:23-Перевод: профессиональный (дублированный) лицензия
Субтитры: нет-Режиссёр: Томас Альфредсон / Tomas Alfredson-В ролях: Гари Олдман / Gary Oldman, Колин Фёрт / Colin Firth, Том Харди / Tom Hardy, Джон Хёрт / John Hurt, Тоби Джонс / Toby Jones, Марк Стронг / Mark Strong, Бенедикт Камбербэтч / Benedict Cumberbatch, Кьяран Хайндс / Ciaran Hinds, Константин Хабенский, Светлана Ходченкова, Золтан Мучи / Zoltan Mucsi, Петер Каллой Мольнар / Peter Kalloy Molnar.-Описание:
Многие сотрудники британской разведки догадывались, что в ее руководстве давно засел «крот», работающий на Россию. Но те, кто отваживался об этом заявлять открыто, почему-то оказывались в отставке. Остальные предпочитали помалкивать. Но подтверждение существования русского агента пришло с совсем неожиданной стороны. Начинается тайное расследование, возглавляемое находящимся в отставке Джорджем Смайли. И никто, включая высшее руководство разведки, не должен догадаться, что на крота снова объявлена охота.
-7.2/10 (59506) 6.709 (13037)-Качество видео: BDRip
Формат файла: AVI-Видео: XviD, 720x304 (2.35:1), 23.976 fps, 1439 kbps avg, 0.274 bit/pixel
Аудио: 48 kHz, AC3 Dolby Digital, 2/0 (L,R) ch, 192 kbps avg (Rus DUB)-

MediaInfo

Общее
Полное имя : D:\Shpion.vyjdi.von.2011.DUB.XviD.AC3.BDRip._by.ZNG505_.avi
Формат : AVI
Формат/Информация : Audio Video Interleave
Размер файла : 1,46 Гбайт
Продолжительность : 2 ч. 7 м.
Общий поток : 1640 Кбит/сек
Программа кодирования : VirtualDubMod 1.5.10.3 | www.virtualdub-fr.org || (build 2550/release)
Библиотека кодирования : VirtualDubMod build 2550/release
Видео
Идентификатор : 0
Формат : MPEG-4 Visual
Профиль формата : Advanced Simple@L5
Параметр BVOP формата : 2
Параметр QPel формата : Нет
Параметр GMC формата : Без точки перехода
Параметр матрицы формата : Выборочная
Идентификатор кодека : XVID
Идентификатор кодека/Подсказка : XviD
Продолжительность : 2 ч. 7 м.
Битрейт : 1439 Кбит/сек
Ширина : 720 пикселей
Высота : 304 пикселя
Соотношение сторон : 2,35:1
Частота кадров : 23,976 кадра/сек
Цветовое пространство : YUV
Субдискретизация насыщенности : 4:2:0
Битовая глубина : 8 бит
Тип развёртки : Прогрессивная
Метод сжатия : С потерями
Бит/(Пиксели*Кадры) : 0.274
Размер потока : 1,28 Гбайт (88%)
Библиотека кодирования : XviD 65
Аудио
Идентификатор : 1
Формат : AC-3
Формат/Информация : Audio Coding 3
Расширение режима : CM (complete main)
Идентификатор кодека : 2000
Продолжительность : 2 ч. 7 м.
Вид битрейта : Постоянный
Битрейт : 192 Кбит/сек
Каналы : 2 канала
Расположение каналов : Front: L R
Частота : 48,0 КГц
Битовая глубина : 16 бит
Метод сжатия : С потерями
Размер потока : 175 Мбайт (12%)
Выравнивание : Разделение по промежуткам
Продолжительность промежутка : 42 мс. (1,00 видеокадр)
Время предзагрузки промежутка : 500 мс.

Скриншот c названием фильма

Скриншоты

Скачать

Скачать торрент!

Как скачивать? · Что такое торрент? · Рейтинг и ограничения

Сайт не распространяет и не хранит электронные версии произведений, а лишь предоставляет доступ к создаваемому пользователями каталогу ссылок на торрент-файлы, которые содержат только списки хеш-сумм

[Профиль] [ЛС]
Показать сообщения:    
Ответить на тему

Текущее время: Сегодня 00:06

Часовой пояс: GMT + 4



Вы не можете начинать темы
Вы не можете отвечать на сообщения
Вы не можете редактировать свои сообщения
Вы не можете удалять свои сообщения
Вы не можете голосовать в опросах
Вы не можете прикреплять файлы к сообщениям
Вы не можете скачивать файлы