Гробовщик / The Mortician (Гарет Максвелл Робертс / Gareth Maxwell Roberts) [2011, Великобритани, триллер, BDRip-AVC] MVO

Ответить на тему
 
Автор Сообщение

user ®

Стаж: 7 лет 7 месяцев

Сообщений: 20008

Пост Пост: #1 от 20-Июл-2012 20:46

[Цитировать]

Гробовщик / The Mortician
Страна: Великобритания
Жанр: триллер
Год выпуска: 2011
Продолжительность: 01:29:07
Перевод: Профессиональный (многоголосый закадровый)
Cубтитры: нет-Режиссер: Гарет Максвелл Робертс / Gareth Maxwell Roberts-В ролях: Метод Мэн, Дэш Майок, Э.Дж. Бонилла, Джуди Марте, Анджелик Замбрана, Уенделл Пирс, Дэна Фучс, Эдвард Ферлонг, Круз Сантьяго, Вернон Брукс-Описание: Одинокий и необщительный Гробовщик работает паталогоанатомом в городском морге. Он изо дня в день, сталкиваясь с трупами, с безразличием относится к своей работе. Жизнь его течет монотонно и спокойно. Но с появлением бывшего преступника Ноа, досрочно освобожденного из мест заключения, который пришел работать в морг, жизнь Гробовщика меняется. А когда он знакомится с маленьким мальчиком Кейном, в его жизни открывается новая страничка. Дело в том, что мать этого мальчугана при невыясненных и странных обстоятельствах была зверски убита. Гробовщик и Кейн поневоле оказываются втянуты в это дело. Начинается опасная борьба с мистическими и пугающими подробностями, не только за свою жизнь, но и жизнь Кейна. Эта борьба с насилием и произволом может грозить Гробовщику и Кейну тюремным заключением не на один год.


СЭМПЛ
Качество видео: BDRip-AVC(The Mortician 2011 BluRay 1080p AVC DTS-HD MA5.1-CHDBits)
Формат видео: MKV
Видео:1120x480 (2.35:1), 23.976 fps, AVC, ~1953 kbps, 0.152 bits/pixel
Аудио:48 kHz, AC3 Dolby Digital, 3/2 (L,C,R,l,r) + LFE ch, ~384 kbps

MediaInfo

General
Unique ID : 241472429504885919280561472866296810659 (0xB5A9E5F533C753F3919B99DDB5644CA3)
Complete name : E:\Downloads\Grobovshik.chopper887.mkv
Format : Matroska
File size : 1.45 GiB
Duration : 1h 29mn
Overall bit rate : 2 336 Kbps
Movie name : Grobovshik.chopper887
Encoded date : UTC 2012-02-16 15:59:26
Writing application : mkvmerge v4.8.0 ('I Got The...') сборка от May 24 2011 03:12:58
Writing library : libebml v1.2.0 + libmatroska v1.1.0
Video
ID : 1
Format : AVC
Format/Info : Advanced Video Codec
Format profile : High@L4.0
Format settings, CABAC : Yes
Format settings, ReFrames : 10 frames
Format settings, GOP : M=1, N=24
Codec ID : V_MPEG4/ISO/AVC
Duration : 1h 29mn
Bit rate : 1 953 Kbps
Width : 1 120 pixels
Height : 480 pixels
Display aspect ratio : 2.35:1
Frame rate : 23.976 fps
Color space : YUV
Chroma subsampling : 4:2:0
Bit depth : 8 bits
Scan type : Progressive
Bits/(Pixel*Frame) : 0.152
Stream size : 1.19 GiB (82%)
Title : Grobovshik.chopper887
Writing library : x264 core 120 r2146 bcd41db
Encoding settings : cabac=1 / ref=10 / deblock=1:-2:-1 / analyse=0x3:0x133 / me=umh / subme=11 / psy=1 / psy_rd=1.00:0.10 / mixed_ref=1 / me_range=32 / chroma_me=1 / trellis=2 / 8x8dct=1 / cqm=0 / deadzone=21,11 / fast_pskip=0 / chroma_qp_offset=-3 / threads=12 / sliced_threads=0 / nr=0 / decimate=1 / interlaced=0 / bluray_compat=0 / constrained_intra=0 / bframes=10 / b_pyramid=2 / b_adapt=2 / b_bias=0 / direct=3 / weightb=1 / open_gop=0 / weightp=2 / keyint=240 / keyint_min=23 / scenecut=40 / intra_refresh=0 / rc_lookahead=80 / rc=2pass / mbtree=1 / bitrate=1953 / ratetol=1.0 / qcomp=0.60 / qpmin=0 / qpmax=69 / qpstep=4 / cplxblur=20.0 / qblur=0.5 / ip_ratio=1.40 / aq=1:1.00
Language : English
Audio
ID : 2
Format : AC-3
Format/Info : Audio Coding 3
Mode extension : CM (complete main)
Codec ID : A_AC3
Duration : 1h 29mn
Bit rate mode : Constant
Bit rate : 384 Kbps
Channel(s) : 6 channels
Channel positions : Front: L C R, Side: L R, LFE
Sampling rate : 48.0 KHz
Bit depth : 16 bits
Compression mode : Lossy
Stream size : 245 MiB (16%)
Title : MVO

Скриншоты


торрент перезалит. замена аудио дорожки на более качественную.
Скачать

Скачать торрент!

Как скачивать? · Что такое торрент? · Рейтинг и ограничения

Сайт не распространяет и не хранит электронные версии произведений, а лишь предоставляет доступ к создаваемому пользователями каталогу ссылок на торрент-файлы, которые содержат только списки хеш-сумм

[Профиль] [ЛС]
Показать сообщения:    
Ответить на тему

Текущее время: Сегодня 23:50

Часовой пояс: GMT + 4



Вы не можете начинать темы
Вы не можете отвечать на сообщения
Вы не можете редактировать свои сообщения
Вы не можете удалять свои сообщения
Вы не можете голосовать в опросах
Вы не можете прикреплять файлы к сообщениям
Вы не можете скачивать файлы