Боже, благослови Америку / God Bless America (Боб Голдтуэйт / Bobcat Goldthwait) [2011, США, триллер, чёрная комедия, криминал, социальная драм, BDRip] VO (А. Киреев по переводу Гоблина) Sub + Original Eng

Ответить на тему
 
Автор Сообщение

user ®

Стаж: 7 лет 7 месяцев

Сообщений: 20008

Пост Пост: #1 от 20-Июл-2012 20:46

[Цитировать]

Боже, благослови Америку / God Bless America«Прирожденные убийцы американской мечты»
Страна: США
Жанр: триллер, чёрная комедия, криминал, социальная драма
Год выпуска: 2011
Продолжительность: 01:44:22-Перевод: Одноголосый закадровый /А. Киреев по переводу Дмитрия Goblin'a Пучкова/
Cубтитры: русские (отдельным файлом/по Гоблину)
Оригинальная аудиодорожка: английский-Режиссер: Боб Голдтуэйт / Bobcat Goldthwait
В ролях: Джоэль Мюррей, Тара Барр, Маккензи Брук Смит, Мелинда Пейдж Хэмилтон, Рич МакДональд, Андреа Харпер, Дэвид Менденхолл, Джулиана Акоста и др.
Описание (от Гоблина): Фрэнка всё достало. Узнав о смертельно опасной опухоли в мозге, он решает покончить не только с собой, но и теми людьми, которые всегда мешали ему жить. На помощь к нему приходит толковая девочка. Вдвоём они устраивают зачистку среди сограждан. Автор сценария и режиссёр — Бобкат Голдтвейт, известный как Зед из киносериала «Полицейская академия». Добротная комедия со смыслом, рекомендуется к просмотру взрослыми старше 18ти лет. Девочкам понравится не всем.
- | -Рейтинг R - Детям до 17 лет обязательно присутствие взрослого
- -Релиз подготовлен
Качество видео: BDRip ([url=http://***/forum/viewtopic.php?t=4111530]исходник[/url])
Формат видео: AVI
Видео: 720x304 (2.37:1), 23.976 fps, XviD build 65 ~1605 kbps avg, 0.31 bit/pixel
Аудио #1 Russian 48,0 kHz, AC3 Dolby Digital, 3/2 (L,C,R,l,r) + LFE ch, ~448 kbps avg
Аудио #2: English 48,0 kHz, AC3 Dolby Digital, 3/2 (L,C,R,l,r) + LFE ch, ~448 kbps avg (отдельным файлом)
Формат субтитров: softsub (SRT)-

Над релизом работали

Перевод: Дмитрий Пучков
Текст читал: Антон Киреев
Работа со звуком: Bloodymetall
Финансовая поддержка: Ladypunk
Постер и юзербар: timyrovecTM
Тайпсеттер: Антон Киреев
Релиз подготовлен при участии Переулка Переводмана

Ссылка на раздачу Bloodymetall'a с AC3, DTS, DTS-HD MA дорожками

[url=http://***/forum/viewtopic.php?t=4117695]http://***/forum/viewtopic.php?t=4117695[/url]

MediaInfo

Формат : AVI
Формат/Информация : Audio Video Interleave
Размер файла : 1,50 Гбайт
Продолжительность : 1 ч. 44 м.
Общий поток : 2063 Кбит/сек
Программа кодирования : VirtualDubMod 1.5.10.2 (build 2540/release)
Библиотека кодирования : VirtualDubMod build 2540/release
Видео
Идентификатор : 0
Формат : MPEG-4 Visual
Профиль формата : Advanced Simple@L5
Параметр BVOP формата : 1
Параметр QPel формата : Нет
Параметр GMC формата : Без точки перехода
Параметр матрицы формата : Выборочная
Идентификатор кодека : XVID
Идентификатор кодека/Подсказка : XviD
Продолжительность : 1 ч. 44 м.
Битрейт : 1605 Кбит/сек
Ширина : 720 пикс.
Высота : 304 пикс.
Соотношение сторон : 2,35:1
Частота кадров : 23,976 кадр/сек
Цветовое пространство : YUV
Подвыборка цветности : 4:2:0
Битовая глубина : 8 бит
Тип развёртки : Прогрессивная
Метод сжатия : С потерями
Бит/(Пиксели*Кадры) : 0.306
Размер потока : 1,17 Гбайт (78%)
Библиотека кодирования : XviD 65
Аудио
Идентификатор : 1
Формат : AC-3
Формат/Информация : Audio Coding 3
Расширение режима : CM (complete main)
Идентификатор кодека : 2000
Продолжительность : 1 ч. 44 м.
Вид битрейта : Постоянный
Битрейт : 448 Кбит/сек
Каналы : 6 каналов
Расположение каналов : Front: L C R, Side: L R, LFE
Частота : 48,0 КГц
Битовая глубина : 16 бит
Метод сжатия : С потерями
Размер потока : 334 Мбайт (22%)
Выравнивание : Разделение по промежуткам
Продолжительность промежутка : 42 мс. (1,00 видеокадр)
Время предзагрузки промежутка : 500 ms

Скриншот c названием фильма

Скриншоты

Скачать

Скачать торрент!

Как скачивать? · Что такое торрент? · Рейтинг и ограничения

Сайт не распространяет и не хранит электронные версии произведений, а лишь предоставляет доступ к создаваемому пользователями каталогу ссылок на торрент-файлы, которые содержат только списки хеш-сумм

[Профиль] [ЛС]
Показать сообщения:    
Ответить на тему

Текущее время: Сегодня 16:11

Часовой пояс: GMT + 4



Вы не можете начинать темы
Вы не можете отвечать на сообщения
Вы не можете редактировать свои сообщения
Вы не можете удалять свои сообщения
Вы не можете голосовать в опросах
Вы не можете прикреплять файлы к сообщениям
Вы не можете скачивать файлы