Горящий человек / Burning Man (Джонатан Теплицки / Jonathan Teplitzky) [2011, Великобритания, Австралия, драма, мелодрама, комедия, HDRip] MVO (RG Amigos)

Ответить на тему
 
Автор Сообщение

user ®

Стаж: 7 лет 7 месяцев

Сообщений: 20008

Пост Пост: #1 от 20-Июл-2012 20:46

[Цитировать]

Горящий человек / Burning Man- Страна: Великобритания, Австралия
Жанр: драма, мелодрама, комедия
Год выпуска: 2011
Продолжительность: 01:50:06-Перевод: Любительский (многоголосый закадровый) RG Amigos
Cубтитры: нет-Режиссер: Джонатан Теплицки / Jonathan Teplitzky
В ролях: Мэттью Гуд, Бояна Новакович, Эсси Дэвис, Рэйчел Гриффитс, Керри Фокс, Энтони Хэйес, Кейт Бихан, Джиа Каридес, Марта Дюссельдорп-Описание: События комедийной драмы, Горящий человек разворачиваются в районе современного Сиднея, где в удобном коттедже в зеленом пригороде проживает главный герой фильма Том вместе со своей очаровательной женой Сарой и восьмилетним сыном Оскаром. У него вполне состоявшаяся жизнь, он успешный шеф-повар в своем собственном ресторане на пляже. Но, в жизни главного героя происходит большая трагедия, которая меняет абсолютно все. Том впадает в крайне неуравновешенное состояние и решает, что больше не будет играть по правилам живущего общества и кардинально изменит свою жизнь. Он ищет утешение в чем то необычном, ярком, в сомнительных развлечениях с женщинами и не хочет обращать внимание на попытки друзей, которые пытаются помочь ему справиться с таким горем...- -Перевод: lingua.pura от RG Translators
Озвучивание: keyaltos, ИринаЮС, Светлана Чистохина
Работа со звуком и рип: ed_rez
-Качество видео: HDRip [Рип с BDRip 1080p]
Формат видео: AVI
Видео: 720x304 (2.37:1), 24 fps, XviD MPEG-4 ~1497 kbps avg, 0.28 bit/pixel
Аудио: 48 kHz, AC3 Dolby Digital, 3/2 (L,C,R,l,r) + LFE ch, ~384 kbps

MediaInfo

Полное имя : Gorjawij.chelovek.2011.XviD.HDRip-Amigos.avi
Формат : AVI
Формат/Информация : Audio Video Interleave
Размер файла : 1,45 Гбайт
Продолжительность : 1 ч. 50 м.
Общий поток : 1891 Кбит/сек
Название фильма : Burning Man (2011)
Режиссёр : Релиз группа "Amigos"
Программа кодирования : VirtualDubMod 1.5.10.2 (build 2540/release)
Правообладатель : ed_rez
Видео
Идентификатор : 0
Формат : MPEG-4 Visual
Профиль формата : Advanced Simple@L5
Параметр BVOP формата : 2
Параметр QPel формата : Нет
Параметр GMC формата : Без точки перехода
Параметр матрицы формата : Выборочная
Режим смешивания : Сжатый битовый поток
Идентификатор кодека : XVID
Идентификатор кодека/Подсказка : XviD
Продолжительность : 1 ч. 50 м.
Битрейт : 1498 Кбит/сек
Ширина : 720 пикселей
Высота : 304 пикселя
Соотношение сторон : 2,35:1
Частота кадров : 24,000 кадра/сек
Цветовое пространство : YUV
Субдискретизация насыщенности : 4:2:0
Битовая глубина : 8 бит
Тип развёртки : Прогрессивная
Метод сжатия : С потерями
Бит/(Пиксели*Кадры) : 0.285
Размер потока : 1,15 Гбайт (79%)
Библиотека кодирования : XviD 1.2.1 (UTC 2008-12-04)
Аудио
Идентификатор : 1
Формат : AC-3
Формат/Информация : Audio Coding 3
Расширение режима : CM (complete main)
Параметр Endianness формата : Big
Идентификатор кодека : 2000
Продолжительность : 1 ч. 50 м.
Вид битрейта : Постоянный
Битрейт : 384 Кбит/сек
Каналы : 6 каналов
Расположение каналов : Front: L C R, Side: L R, LFE
Частота : 48,0 КГц
Битовая глубина : 16 бит
Метод сжатия : С потерями
Размер потока : 302 Мбайт (20%)
Выравнивание : Разделение по промежуткам
Продолжительность промежутка : 42 мс. (1,00 видеокадр)
Время предзагрузки промежутка : 500 мс.

Скриншоты

Скачать

Скачать торрент!

Как скачивать? · Что такое торрент? · Рейтинг и ограничения

Сайт не распространяет и не хранит электронные версии произведений, а лишь предоставляет доступ к создаваемому пользователями каталогу ссылок на торрент-файлы, которые содержат только списки хеш-сумм

[Профиль] [ЛС]
Показать сообщения:    
Ответить на тему

Текущее время: Сегодня 07:51

Часовой пояс: GMT + 4



Вы не можете начинать темы
Вы не можете отвечать на сообщения
Вы не можете редактировать свои сообщения
Вы не можете удалять свои сообщения
Вы не можете голосовать в опросах
Вы не можете прикреплять файлы к сообщениям
Вы не можете скачивать файлы