Женщина в черном / The Woman in Black (Джеймс Уоткинс / James Watkins) [2012 г., Ужасы, триллер, драма, BDRip-AVC] Dub

Ответить на тему
 
Автор Сообщение

user ®

Стаж: 7 лет 7 месяцев

Сообщений: 20008

Пост Пост: #1 от 20-Июл-2012 20:46

[Цитировать]

Женщина в черном / The Woman in Black-Год выпуска: 2012
Страна: Швеция, Канада, Великобритания
Жанр: Ужасы, триллер, драма
Продолжительность: 01:35:20
Перевод: Профессиональный (дублированный)
Субтитры: Нет-Режиссер: Джеймс Уоткинс / James Watkins-В ролях: Дэниэл Рэдклифф (Arthur Kipps), Кирен Хайдз (Daily), Джанет МакТир (Mrs. Daily), Дэвид Бурк (PC Collins), Шон Дули (Fisher), Эмма Шори (Fisher Girl), Молли Хэрмон (Fisher Girl), Ellisa Walker-Reid (Fisher Girl), Софи Стаки (Stella Kipps), Миша Хэндли (Joseph Kipps), Джессика Рэйне (Nanny), Роджер Аллам (Mr. Bentley)-Описание: На дворе - конец девятнадцатого века, но, хотя люди пользуются автомобилями, железными дорогами и телеграфом, человек по-прежнему бессилен перед проявлениями сверхъестественного. Молодой лондонский юрист Артур Киппс вынужден оставить своего 4-летнего сына и отправиться в командировку в уединенную северную деревушку, чтобы составить реестр документов, оставшихся от скончавшегося хозяина поместья Ил Марш. Добравшись до места и пообщавшись с негостеприимными местными жителями, он начинает понимать, что над деревушкой нависла тень мрачной тайны. Когда же рядом со старым кладбищем ему на глаза попадается загадочная женщина, одетая в черное, это малозначительное происшествие знаменует начало череды леденящих кровь смертей в семьях обитателей деревни.-Качество: BDRip-AVC || Ист.: The.Woman.in.Black.2012.BluRay.1080p.AVC.DTS-HD.MA5.1-Softfeng@CHDBits || Сэмпл
Формат: MKV
Видео: 1152x490 (2,35:1), 23.976 fps, H.264 ~1733 kbps avg, 0.125 bit/pixel
Аудио: 48 kHz, AC3 Dolby Digital, 3/2 (L,C,R,l,r) + LFE ch, ~448.00 kbps avg rus

Скриншоты



MediaInfo | x264

x264

x264 [info]: frame I:1250 Avg QP:14.74 size: 54240x264 [info]: frame P:26332 Avg QP:15.92 size: 19255x264 [info]: frame B:109554 Avg QP:18.52 size: 6065x264 [info]: consecutive B-frames: 1.8% 1.3% 3.8% 14.1% 19.8% 32.7% 10.9% 10.0% 3.6% 1.8%x264 [info]: mb I I16..4: 11.4% 73.4% 15.2%x264 [info]: mb P I16..4: 1.2% 7.3% 0.8% P16..4: 36.5% 22.9% 15.3% 0.9% 0.2% skip:15.0%x264 [info]: mb B I16..4: 0.1% 0.4% 0.0% B16..8: 35.9% 9.9% 2.4% direct: 4.0% skip:47.3% L0:44.3% L1:45.9% BI: 9.8%x264 [info]: 8x8 transform intra:77.4% inter:57.2%x264 [info]: coded y,uvDC,uvAC intra: 81.9% 77.4% 61.5% inter: 17.0% 11.3% 2.4%x264 [info]: i16 v,h,dc,p: 56% 8% 13% 23%x264 [info]: i8 v,h,dc,ddl,ddr,vr,hd,vl,hu: 13% 9% 10% 9% 12% 12% 11% 11% 13%x264 [info]: i4 v,h,dc,ddl,ddr,vr,hd,vl,hu: 12% 7% 6% 11% 15% 13% 12% 11% 13%x264 [info]: i8c dc,h,v,p: 45% 25% 19% 11%x264 [info]: Weighted P-Frames: Y:3.3% UV:1.4%x264 [info]: ref P L0: 46.3% 7.2% 19.4% 7.5% 6.3% 4.6% 4.0% 2.3% 2.2% 0.2% 0.0%x264 [info]: ref B L0: 68.4% 14.4% 7.0% 3.7% 2.7% 2.2% 1.2% 0.4%x264 [info]: ref B L1: 90.6% 9.4%x264 [info]: kb/s:1733.24
ОбщееПолное имя : Zhenschina.V.Chernom.2012.BDRip-AVC.All.Films.mkvФормат : MatroskaВерсия формата : Version 2Размер файла : 1,45 ГбайтПродолжительность : 1 ч. 35 м.Общий поток : 2183 Кбит/секДата кодирования : UTC 2012-06-28 14:40:29Программа кодирования : mkvmerge v5.5.0 ('Healer') built on Apr 6 2012 21:43:24Библиотека кодирования : libebml v1.2.3 + libmatroska v1.3.0
ВидеоИдентификатор : 1Формат : AVCФормат/Информация : Advanced Video CodecПрофиль формата : High@L4.1Параметр CABAC формата : ДаПараметр ReFrames формата : 9 кадровИдентификатор кодека : V_MPEG4/ISO/AVCПродолжительность : 1 ч. 35 м.Битрейт : 1691 Кбит/секШирина : 1152 пикселяВысота : 490 пикселейСоотношение сторон : 2,35:1Частота кадров : 23,976 кадра/секЦветовое пространство : YUVСубдискретизация насыщенности : 4:2:0Битовая глубина : 8 битТип развёртки : ПрогрессивнаяБит/(Пиксели*Кадры) : 0.125Размер потока : 1,13 Гбайт (77%)Заголовок : Zhenschina.V.Chernom.2012.BDRip-AVC.All.FilmsБиблиотека кодирования : x264 core 120 r2164 da19765Настройки программы : cabac=1 / ref=9 / deblock=1:-2:-1 / analyse=0x3:0x133 / me=umh / subme=10 / psy=1 / psy_rd=1.00:0.05 / mixed_ref=1 / me_range=48 / chroma_me=1 / trellis=2 / 8x8dct=1 / cqm=0 / deadzone=21,11 / fast_pskip=1 / chroma_qp_offset=-3 / threads=9 / sliced_threads=0 / nr=0 / decimate=1 / interlaced=0 / bluray_compat=0 / constrained_intra=0 / bframes=9 / b_pyramid=2 / b_adapt=2 / b_bias=0 / direct=1 / weightb=1 / open_gop=0 / weightp=2 / keyint=240 / keyint_min=23 / scenecut=40 / intra_refresh=0 / rc_lookahead=60 / rc=crf / mbtree=0 / crf=18.0 / qcomp=0.75 / qpmin=0 / qpmax=69 / qpstep=4 / vbv_maxrate=50000 / vbv_bufsize=62500 / crf_max=0.0 / nal_hrd=none / ip_ratio=1.30 / pb_ratio=1.25 / aq=2:1.00Язык : EnglishDefault : ДаForced : НетОсновные цвета : BT.709-5, BT.1361, IEC 61966-2-4, SMPTE RP177Характеристики трансфера : BT.709-5, BT.1361Коэффициенты матрицы : BT.709-5, BT.1361, IEC 61966-2-4 709, SMPTE RP177
АудиоИдентификатор : 2Формат : AC-3Формат/Информация : Audio Coding 3Расширение режима : CM (complete main)Идентификатор кодека : A_AC3Продолжительность : 1 ч. 35 м.Вид битрейта : ПостоянныйБитрейт : 448 Кбит/секКаналы : 6 каналовРасположение каналов : Front: L C R, Side: L R, LFEЧастота : 48,0 КГцБитовая глубина : 16 битМетод сжатия : С потерямиРазмер потока : 305 Мбайт (21%)Заголовок : Russian DUBЯзык : RussianDefault : ДаForced : Нет
Скачать

Скачать торрент!

Как скачивать? · Что такое торрент? · Рейтинг и ограничения

Сайт не распространяет и не хранит электронные версии произведений, а лишь предоставляет доступ к создаваемому пользователями каталогу ссылок на торрент-файлы, которые содержат только списки хеш-сумм

[Профиль] [ЛС]
Показать сообщения:    
Ответить на тему

Текущее время: Сегодня 19:57

Часовой пояс: GMT + 4



Вы не можете начинать темы
Вы не можете отвечать на сообщения
Вы не можете редактировать свои сообщения
Вы не можете удалять свои сообщения
Вы не можете голосовать в опросах
Вы не можете прикреплять файлы к сообщениям
Вы не можете скачивать файлы