Пол: Секретный материальчик / Paul (Грег Моттола / Greg Mottola) [2011, США, Великобритания, фантастика, комедия, приключения, BDRip] [Extended Cut] AVO (Ю. Сербин)

Ответить на тему
 
Автор Сообщение

user ®

Стаж: 7 лет 7 месяцев

Сообщений: 20008

Пост Пост: #1 от 20-Июл-2012 20:46

[Цитировать]

ПОЛ: СЕКРЕТНЫЙ МАТЕРИАЛЬЧИК / Paul
Расширенная версия / Extended Cut
«Кто готов к тесному контакту?»
-Страна: США, Великобритания
Студии: Big Talk Productions, Пифагор, Relativity Media
Жанр: фантастика, комедия, приключения
Год выпуска: 2011
Продолжительность: 01:49:18-Перевод: авторский (одноголосый закадровый) Юрий Сербин
Субтитры: нет-Режиссёр: Грег Моттола / Greg Mottola-В ролях: Саймон Пегг, Ник Фрост, Джереми Оуэн, Джефри Тэмбор, Дэвид Хаус, Дженнифер Грэйнджер, Нельсон Асценсио, Бобби Ли, Джейн Линч, Дэвид Кокнер, Джесси Племонс, Сет Роген, Джейсон Бейтман, Сигурни Уивер, Билл Хэйдер, Джо Ло Труглио.-Описание:
Два английских гика отправляются на одно из самых значимых фанатских событий в области фантастики — конвент ComicCon в Америке. По пути, неподалёку от известной Зоны 51, они встречают сбежавшего инопланетянина по имени Пол, который просит помочь ему добраться домой. Пытаясь спастись от правительственных агентов, герои случайно похищают женщину и натыкаются на обкуренную свидетельницу аварийной посадки Пола на Землю.
-7.1/10 (63053) 7.332 (22882)-Качество видео: BDRip
Формат файла: AVI
Видео: XviD, 720x304 (2.35:1), 23.976 fps, 1446 kbps avg, 0.276 bit/pixel
Аудио: 48 kHz, AC3 Dolby Digital, 3/2 (L,C,R,l,r) + LFE ch, 448 kbps avg (Rus AVO Юрий Сербин)-

MediaInfo

Общее
Полное имя : D:\Paul.2011.EXTENDED.AVO.XviD.AC3.BDRip._by.ZNG505_.avi
Формат : AVI
Формат/Информация : Audio Video Interleave
Размер файла : 1,45 Гбайт
Продолжительность : 1 ч. 49 м.
Общий поток : 1903 Кбит/сек
Программа кодирования : VirtualDubModRus 1.5.10.2 (build 2542/release)
Библиотека кодирования : VirtualDubMod build 2542/release
Видео
Идентификатор : 0
Формат : MPEG-4 Visual
Профиль формата : Advanced Simple@L5
Параметр BVOP формата : 1
Параметр QPel формата : Нет
Параметр GMC формата : Без точки перехода
Параметр матрицы формата : Выборочная
Идентификатор кодека : XVID
Идентификатор кодека/Подсказка : XviD
Продолжительность : 1 ч. 49 м.
Битрейт : 1446 Кбит/сек
Ширина : 720 пикселей
Высота : 304 пикселя
Соотношение сторон : 2,35:1
Частота кадров : 23,976 кадра/сек
Цветовое пространство : YUV
Субдискретизация насыщенности : 4:2:0
Битовая глубина : 8 бит
Тип развёртки : Прогрессивная
Метод сжатия : С потерями
Бит/(Пиксели*Кадры) : 0.276
Размер потока : 1,10 Гбайт (76%)
Библиотека кодирования : XviD 1.2.1 (UTC 2008-12-04)
Аудио
Идентификатор : 1
Формат : AC-3
Формат/Информация : Audio Coding 3
Расширение режима : CM (complete main)
Идентификатор кодека : 2000
Продолжительность : 1 ч. 49 м.
Вид битрейта : Постоянный
Битрейт : 448 Кбит/сек
Каналы : 6 каналов
Расположение каналов : Front: L C R, Side: L R, LFE
Частота : 48,0 КГц
Битовая глубина : 16 бит
Метод сжатия : С потерями
Размер потока : 350 Мбайт (24%)
Выравнивание : Разделение по промежуткам
Продолжительность промежутка : 42 мс. (1,00 видеокадр)
Время предзагрузки промежутка : 500 мс.

Скриншот c названием фильма

Скриншоты

Скачать

Скачать торрент!

Как скачивать? · Что такое торрент? · Рейтинг и ограничения

Сайт не распространяет и не хранит электронные версии произведений, а лишь предоставляет доступ к создаваемому пользователями каталогу ссылок на торрент-файлы, которые содержат только списки хеш-сумм

[Профиль] [ЛС]
Показать сообщения:    
Ответить на тему

Текущее время: Сегодня 05:59

Часовой пояс: GMT + 4



Вы не можете начинать темы
Вы не можете отвечать на сообщения
Вы не можете редактировать свои сообщения
Вы не можете удалять свои сообщения
Вы не можете голосовать в опросах
Вы не можете прикреплять файлы к сообщениям
Вы не можете скачивать файлы