Тонкий Лед / The Convincer (Джилл Шпрехер / Jill Shpreher) [2011, Драма, комедия, криминал, HDRip-AVC] VO (zamez) + VO (А.Киреев) + Original + Sub (rus., eng.)

Ответить на тему
 
Автор Сообщение

user ®

Стаж: 7 лет 7 месяцев

Сообщений: 20008

Пост Пост: #1 от 20-Июл-2012 20:46

[Цитировать]

Тонкий Лед / The Convincer-- Страна: США / ATO Pictures, Spare Room Productions, Werc Werk Works
Жанр: Драма, комедия, криминал
Год выпуска: 2011
Продолжительность: 01:33:09-Перевод: Одноголосый закадровый [zamez]
Cубтитры: русские (janetta), английские
Формат субтитров: softsub (SRT)
Оригинальная аудиодорожка: английский
Навигация по главам: есть-Режиссер: Джилл Шпрехер / Jill Shpreher
В ролях: Грег Киннер, Билли Крудап, Алан Аркин, Джон Пол, Гамоук Дэвид, Харбор Дженнифер, Эдвардс-Хьюз, Скотт Крауч, Питер Мур, Мишель Хатчинсон
Описание: Главный герой истории — отчаявшийся сотрудник страховой компании, замысливший аферу, цель которой — завладеть редкой коллекционной скрипкой работы знаменитого мастера. Затея героя приводит к непредсказуемым и опасным последствиям.- -Качество видео: HDRip-AVC [BDRip 720p]
Формат видео: MKV
Видео: H.264, 1024x434 (2,35:1), 23,976 кадр/сек, 1800 Кбит/сек, 0.169 bit/pixel
Аудио#1: 48 kHz, AC3 Dolby Digital, 3/2 (L,C,R,l,r) + LFE ch, ~448.00 kbps avg | zamez
Аудио#2: 48 kHz, AC3 Dolby Digital, 3/2 (L,C,R,l,r) + LFE ch, ~448.00 kbps avg | А.Киреев (narod.ru)
Аудио#3: 48 kHz, AC3 Dolby Digital, 3/2 (L,C,R,l,r) + LFE ch, ~448.00 kbps avg | ENG (narod.ru)

MediaInfo

Общее
Уникальный идентификатор : 193227732697178322049185559339707479699 (0x915E4EC2119CA8A9BC895A4C29693693)
Полное имя : Tonkiy.led.2011.L1.HDRip.x264.potroks.mkv
Формат : Matroska
Версия формата : Version 2
Размер файла : 1,46 Гбайт
Продолжительность : 1 ч. 33 м.
Общий поток : 2246 Кбит/сек
Название фильма : -=POTROKS=-
Дата кодирования : UTC 2012-07-20 13:37:10
Программа кодирования : mkvmerge v5.6.0 ('Kenya Kane') built on May 27 2012 16:44:04
Библиотека кодирования : libebml v1.2.3 + libmatroska v1.3.0
Видео
Идентификатор : 1
Формат : AVC
Формат/Информация : Advanced Video Codec
Профиль формата : High@L4.1
Параметр CABAC формата : Да
Параметр ReFrames формата : 16 кадров
Идентификатор кодека : V_MPEG4/ISO/AVC
Продолжительность : 1 ч. 33 м.
Битрейт : 1800 Кбит/сек
Ширина : 1024 пикселя
Высота : 434 пикселя
Соотношение сторон : 2,35:1
Частота кадров : 23,976 кадра/сек
Цветовое пространство : YUV
Субдискретизация насыщенности : 4:2:0
Битовая глубина : 8 бит
Тип развёртки : Прогрессивная
Бит/(Пиксели*Кадры) : 0.169
Размер потока : 1,14 Гбайт (78%)
Заголовок : Tonkiy.led.2011.L1.HDRip.x264.potroks
Библиотека кодирования : x264 core 125 r2200 999b753
Настройки программы : cabac=1 / ref=16 / deblock=1:-2:-1 / analyse=0x3:0x133 / me=umh / subme=11 / psy=1 / psy_rd=1.00:0.00 / mixed_ref=1 / me_range=32 / chroma_me=1 / trellis=2 / 8x8dct=1 / cqm=0 / deadzone=21,11 / fast_pskip=0 / chroma_qp_offset=-2 / threads=6 / lookahead_threads=1 / sliced_threads=0 / nr=0 / decimate=1 / interlaced=0 / bluray_compat=0 / constrained_intra=0 / bframes=12 / b_pyramid=2 / b_adapt=2 / b_bias=0 / direct=3 / weightb=1 / open_gop=0 / weightp=2 / keyint=240 / keyint_min=23 / scenecut=40 / intra_refresh=0 / rc_lookahead=100 / rc=2pass / mbtree=1 / bitrate=1800 / ratetol=1.0 / qcomp=0.60 / qpmin=10 / qpmax=51 / qpstep=4 / cplxblur=20.0 / qblur=0.5 / ip_ratio=1.35 / aq=2:0.80
Default : Да
Forced : Нет
Аудио
Идентификатор : 2
Формат : AC-3
Формат/Информация : Audio Coding 3
Расширение режима : CM (complete main)
Идентификатор кодека : A_AC3
Продолжительность : 1 ч. 33 м.
Вид битрейта : Постоянный
Битрейт : 448 Кбит/сек
Каналы : 6 каналов
Расположение каналов : Front: L C R, Side: L R, LFE
Частота : 48,0 КГц
Битовая глубина : 16 бит
Метод сжатия : С потерями
Размер потока : 299 Мбайт (20%)
Заголовок : zamez AC3, 5.1 ch., 448 kbps
Язык : Russian
Default : Да
Forced : Да
Текст #1
Идентификатор : 3
Формат : UTF-8
Идентификатор кодека : S_TEXT/UTF8
Идентификатор кодека/Информация : UTF-8 Plain Text
Заголовок : janetta
Язык : Russian
Default : Нет
Forced : Нет
Текст #2
Идентификатор : 4
Формат : UTF-8
Идентификатор кодека : S_TEXT/UTF8
Идентификатор кодека/Информация : UTF-8 Plain Text
Язык : English
Default : Нет
Forced : Нет
Меню
00:00:00.000 : en:00:00:00.000
00:04:14.421 : en:00:04:14.421
00:08:47.861 : en:00:08:47.861
00:12:02.221 : en:00:12:02.221
00:15:19.544 : en:00:15:19.544
00:21:59.693 : en:00:21:59.693
00:25:12.970 : en:00:25:12.970
00:28:44.348 : en:00:28:44.348
00:34:21.518 : en:00:34:21.518
00:39:29.450 : en:00:39:29.450
00:43:33.152 : en:00:43:33.152
00:46:45.469 : en:00:46:45.469
00:49:49.445 : en:00:49:49.445
00:54:00.320 : en:00:54:00.320
00:58:07.818 : en:00:58:07.818
01:02:58.775 : en:01:02:58.775
01:06:02.500 : en:01:06:02.500
01:09:21.324 : en:01:09:21.324
01:14:16.535 : en:01:14:16.535
01:18:10.311 : en:01:18:10.311
01:21:52.032 : en:01:21:52.032
01:25:39.343 : en:01:25:39.343
01:27:56.229 : en:01:27:56.229
01:29:37.581 : en:01:29:37.581

Скриншоты


Скачать

Скачать торрент!

Как скачивать? · Что такое торрент? · Рейтинг и ограничения

Сайт не распространяет и не хранит электронные версии произведений, а лишь предоставляет доступ к создаваемому пользователями каталогу ссылок на торрент-файлы, которые содержат только списки хеш-сумм

[Профиль] [ЛС]
Показать сообщения:    
Ответить на тему

Текущее время: Сегодня 23:47

Часовой пояс: GMT + 4



Вы не можете начинать темы
Вы не можете отвечать на сообщения
Вы не можете редактировать свои сообщения
Вы не можете удалять свои сообщения
Вы не можете голосовать в опросах
Вы не можете прикреплять файлы к сообщениям
Вы не можете скачивать файлы