Моя первая свадьба / Mi primera boda (Ариэль Виноград / Ariel Winograd) [2011, Аргентина, комедия, мелодрама, DVDRip] DVO [RG Victory films]

Ответить на тему
 
Автор Сообщение

user ®

Стаж: 7 лет 7 месяцев

Сообщений: 20008

Пост Пост: #1 от 20-Июл-2012 20:46

[Цитировать]

Моя первая свадьба / Mi primera boda
Страна: Аргентина
Жанр: комедия, мелодрама
Год выпуска: 2011
Продолжительность: 01:42:59
Перевод: Любительский (двухголосый закадровый)
Cубтитры: нет
Режиссер: Ариэль Виноград / Ariel Winograd
В ролях: Наталия Орейро, Даниэль Хендлер, Иманоль Ариас, Соледад Сильвейра, Мартин Пироянски, Муриэль Санта Ана, Пепе Сориано, Габриэла Ачер, Джино Ренни, Маркос Мундсток, Даниэль Рабинович, Клименте Кансела, Себастьян де Каро.
Описание: "Моя первая свадьба" - это история женитьбы Леоноры (Наталия Орейро) и Адриана (Даниэль Хендлер). Классическая свадьба, с безупречным платьем, 4-х ярусным тортом, в месте, о котором можно только мечтать. Пока Адриан не совершает одну маленькую ошибку, которую решает скрыть от своей невесты, чтобы избежать проблем. Но вместо того, чтобы избежать их, все еще больше усложняется и ставит под угрозу не только праздник, но и сам брак.
Перевод : ivk/Vichka111
Озвучивали : Андрей Питерский и Камила Юнусова [RG Victory films]
Работа со звуком : Гаров

Сэмпл: http://multi-up.com/652537
Качество видео: DVDRip
Формат видео: AVI
Video: 688x304 (2.26:1), 29.970 fps, XviD MPEG-4 ~1682 kbps avg, 0.27 bit/pixel
Audio Rus: 48 kHz, MPEG Layer 3, 2 ch, ~192.00 kbps avg
Audio Esp: 48 kHz, AC3 Dolby Digital, 2/0 (L,R) ch, ~192.00 kbps avg

MediaInfo

Общее
Полное имя : D:\Мои документы\Загрузки\Моя Первая Свадьба 2011.avi
Формат : AVI
Формат/Информация : Audio Video Interleave
Размер файла : 1,50 Гбайт
Продолжительность : 1 ч. 42 м.
Общий поток : 2085 Кбит/сек
Название фильма : Mi primera boda
Режиссёр : Vichka111
Жанр : Comedy
Программа кодирования : VirtualDubMod 1.5.10.2 (build 2540/release)
Формат оригинала/Имя : Movie
Правообладатель : RG Victory Film
Примечание : A.Piterskiy & K.Yunusova
Видео
Идентификатор : 0
Формат : MPEG-4 Visual
Профиль формата : Advanced Simple@L5
Параметр BVOP формата : 2
Параметр QPel формата : Нет
Параметр GMC формата : Без точки перехода
Параметр матрицы формата : Default (H.263)
Режим смешивания : Сжатый битовый поток
Идентификатор кодека : XVID
Идентификатор кодека/Подсказка : XviD
Продолжительность : 1 ч. 42 м.
Битрейт : 1684 Кбит/сек
Ширина : 688 пикселей
Высота : 304 пикселя
Соотношение сторон : 2,25:1
Частота кадров : 29,970 кадров/сек
Цветовое пространство : YUV
Субдискретизация насыщенности : 4:2:0
Битовая глубина : 8 бит
Тип развёртки : Прогрессивная
Метод сжатия : С потерями
Бит/(Пиксели*Кадры) : 0.269
Размер потока : 1,21 Гбайт (81%)
Библиотека кодирования : XviD 58
Аудио #1
Идентификатор : 1
Формат : MPEG Audio
Версия формата : Version 1
Профиль формата : Layer 3
Режим : Joint stereo
Идентификатор кодека : 55
Идентификатор кодека/Подсказка : MP3
Продолжительность : 1 ч. 42 м.
Вид битрейта : Постоянный
Битрейт : 192 Кбит/сек
Каналы : 2 канала
Частота : 48,0 КГц
Метод сжатия : С потерями
Размер потока : 141 Мбайт (9%)
Выравнивание : Соединение по промежуткам
Продолжительность промежутка : 33 мс. (1,00 видеокадр)
Время предзагрузки промежутка : 504 мс.
Аудио #2
Идентификатор : 2
Формат : AC-3
Формат/Информация : Audio Coding 3
Расширение режима : CM (complete main)
Идентификатор кодека : 2000
Продолжительность : 1 ч. 42 м.
Вид битрейта : Постоянный
Битрейт : 192 Кбит/сек
Каналы : 2 канала
Расположение каналов : Front: L R
Частота : 48,0 КГц
Битовая глубина : 16 бит
Метод сжатия : С потерями
Размер потока : 141 Мбайт (9%)
Выравнивание : Соединение по промежуткам
Продолжительность промежутка : 33 мс. (1,00 видеокадр)
Время предзагрузки промежутка : 512 мс.

Скриншот c названием фильма

Скриншоты

Скачать

Скачать торрент!

Как скачивать? · Что такое торрент? · Рейтинг и ограничения

Сайт не распространяет и не хранит электронные версии произведений, а лишь предоставляет доступ к создаваемому пользователями каталогу ссылок на торрент-файлы, которые содержат только списки хеш-сумм

[Профиль] [ЛС]
Показать сообщения:    
Ответить на тему

Текущее время: Сегодня 15:57

Часовой пояс: GMT + 4



Вы не можете начинать темы
Вы не можете отвечать на сообщения
Вы не можете редактировать свои сообщения
Вы не можете удалять свои сообщения
Вы не можете голосовать в опросах
Вы не можете прикреплять файлы к сообщениям
Вы не можете скачивать файлы