Мужчины в большом городе 2 / Mannerherzen... und die ganz ganz grosse Liebe (Саймон Верховен / Simon Verhoeven) [2011, Германия, Комедия, HDRip-AVC] Dub Лицензия

Ответить на тему
 
Автор Сообщение

user ®

Стаж: 7 лет 7 месяцев

Сообщений: 20008

Пост Пост: #1 от 20-Июл-2012 20:41

[Цитировать]

Мужчины в большом городе 2
-Страна: Германия
Жанр: Комедия
Год выпуска: 2011
Продолжительность: 01:52:19
Перевод: Профессиональный (дублированный) Лицензия
Режиссер: Саймон Верховен / Simon Verhoeven
Cубтитры: отсутствуют

-В ролях: Тиль Швайгер, Флориан Дэвид Фитц, Кристиан Ульмен, Юстус фон Донаньи, Надя Уль, Паскуале Алеарди, Йоханнес Алльмайер, Томас Бадинг, Майкл Бэрал, Оли Бигальке-Описание: Сюжет комедии показывает разных по характеру и роду деятельности мужчин. Один из них — хозяин кафе и будущий папа, второй — безработный, третий музыкальный продюсер и бабник, а четвертый разводится. Чего именно хотят мужчины — неизвестно. Ясно только, что все они весьма схожи в своем стремлении к счастью и любви.- -Качество видео: HDRip-AVC (исходник неизвестен)
Формат видео: MKV
-Видео: 1280 x 536 (2.35:1), 24.000 fps, AVC (х264), High@L4.1, ~ 2295 Kbps, 0.139 bit/pixel
Аудио: 48 kHz, AC3 Dolby Digital, 3/2 (L,C,R,l,r) + LFE ch, ~384 kbps-

MediaInfo

Общее
Уникальный идентификатор : 231199462628024153290568770494016854379 (0xADEF65960173D9459B69F52B9B81196B)
Полное имя : Мужчины в большом городе 2 / Mannerherzen... und die ganz ganz grosse Liebe
Формат : Matroska
Версия формата : Version 2
Размер файла : 2,10 Гбайт
Продолжительность : 1 ч. 52 м.
Общий поток : 2681 Кбит/сек
Дата кодирования : UTC 2012-03-24 20:09:12
Программа кодирования : mkvmerge v4.6.0 ('Still Crazy After All These Years') сборка от Apr 1 2011 21:01:49
Библиотека кодирования : libebml v1.2.0 + libmatroska v1.1.0
Видео
Идентификатор : 1
Формат : AVC
Формат/Информация : Advanced Video Codec
Профиль формата : High@L4.1
Параметр CABAC формата : Да
Параметр ReFrames формата : 4 кадра
Идентификатор кодека : V_MPEG4/ISO/AVC
Продолжительность : 1 ч. 52 м.
Битрейт : 2295 Кбит/сек
Ширина : 1280 пикселей
Высота : 536 пикселей
Соотношение сторон : 2,40:1
Частота кадров : 24,000 кадра/сек
Цветовое пространство : YUV
Субдискретизация насыщенности : 4:2:0
Битовая глубина : 8 бит
Тип развёртки : Прогрессивная
Бит/(Пиксели*Кадры) : 0.139
Размер потока : 1,76 Гбайт (84%)
Библиотека кодирования : x264 core 115 r1937 aa21558
Настройки программы : cabac=1 / ref=3 / deblock=1:-1:-1 / analyse=0x3:0x113 / me=hex / subme=7 / psy=1 / psy_rd=1.00:0.10 / mixed_ref=1 / me_range=16 / chroma_me=1 / trellis=1 / 8x8dct=1 / cqm=0 / deadzone=21,11 / fast_pskip=1 / chroma_qp_offset=-3 / threads=6 / sliced_threads=0 / nr=0 / decimate=1 / interlaced=0 / bluray_compat=0 / constrained_intra=0 / bframes=3 / b_pyramid=2 / b_adapt=1 / b_bias=0 / direct=3 / weightb=1 / open_gop=0 / weightp=2 / keyint=250 / keyint_min=23 / scenecut=40 / intra_refresh=0 / rc_lookahead=40 / rc=2pass / mbtree=1 / bitrate=2295 / ratetol=1.0 / qcomp=0.60 / qpmin=0 / qpmax=69 / qpstep=4 / cplxblur=20.0 / qblur=0.5 / ip_ratio=1.40 / aq=1:1.00
Аудио
Идентификатор : 2
Формат : AC-3
Формат/Информация : Audio Coding 3
Расширение режима : CM (complete main)
Идентификатор кодека : A_AC3
Продолжительность : 1 ч. 52 м.
Вид битрейта : Постоянный
Битрейт : 384 Кбит/сек
Каналы : 6 каналов
Расположение каналов : Front: L C R, Side: L R, LFE
Частота : 48,0 КГц
Битовая глубина : 16 бит
Метод сжатия : С потерями
Размер потока : 308 Мбайт (14%)
-

Скриншоты

Скачать

Скачать торрент!

Как скачивать? · Что такое торрент? · Рейтинг и ограничения

Сайт не распространяет и не хранит электронные версии произведений, а лишь предоставляет доступ к создаваемому пользователями каталогу ссылок на торрент-файлы, которые содержат только списки хеш-сумм

[Профиль] [ЛС]
Показать сообщения:    
Ответить на тему

Текущее время: Сегодня 04:17

Часовой пояс: GMT + 4



Вы не можете начинать темы
Вы не можете отвечать на сообщения
Вы не можете редактировать свои сообщения
Вы не можете удалять свои сообщения
Вы не можете голосовать в опросах
Вы не можете прикреплять файлы к сообщениям
Вы не можете скачивать файлы