СМСуальность / Textuality (Уоррен П. Сонода / Warren P. Sonoda) [2011, Канада / Strident Films, мелодрама, комедия, DVDRip] MVO

Ответить на тему
 
Автор Сообщение

user ®

Стаж: 7 лет 7 месяцев

Сообщений: 20008

Пост Пост: #1 от 20-Июл-2012 20:41

[Цитировать]

СМСуальность / Textuality- -Страна: Канада / Strident Films
Жанр: мелодрама, комедия
Год выпуска: 2011
Продолжительность: 01:30:19-Перевод: Профессиональный (многоголосый закадровый)
Cубтитры: нет
Режиссер: Уоррен П. Сонода / Warren P. Sonoda-В ролях: Лайам Кард, Джейсон Льюис, Эрик МакКормак, Карли Поуп, Кристен Холден-Рид-Описание: Пора уже бросить, наконец, писать СМСки, сидеть в этом вашем Фейсбуке, и заняться любовью в реальной жизни! Герои фильма прошли долгий путь от шлепания по клавишам и обмена фотографиями до реальной встречи, но они настолько отвыкли от реального общения, что наладить любовь им трудно.-Доп. информация: - -Качество видео: DVDRip
Формат видео: AVI
Видео: 720x384 (1.88:1), 25 fps, XviD build 50 ~1967 kbps avg, 0.28 bit/pixel
Аудио: 48 kHz, AC3 Dolby Digital, 2/0 (L,R) ch, ~192 kbps

MediaInfo

General
Complete name : D:\Torrents\SMSualnost.2011.P.DVDRip.IRONCLUB.avi
Format : AVI
Format/Info : Audio Video Interleave
File size : 1.37 GiB
Duration : 1h 30mn
Overall bit rate : 2 169 Kbps
Movie name : Textuality.2011.P.DVDRip.IRONCLUB
Director : IRONCLUB
Writing application : VirtualDubMod 1.5.10.2 (build 2540/release)
Writing library : VirtualDubMod build 2540/release
Original source form/Name : Movie
Copyright : ironclub.tv
Video #0
ID : 0
Format : MPEG-4 Visual
Format profile : AdvancedSimple@L5
Format settings, BVOP : Yes
Format settings, QPel : No
Format settings, GMC : No warppoints
Format settings, Matrix : Custom
Codec ID : XVID
Codec ID/Hint : XviD
Duration : 1h 30mn
Bit rate : 1 882 Kbps
Width : 720 pixels
Height : 384 pixels
Display aspect ratio : 1.875
Frame rate : 25.000 fps
Resolution : 24 bits
Colorimetry : 4:2:0
Scan type : Progressive
Bits/(Pixel*Frame) : 0.272
Stream size : 1.19 GiB (87%)
Writing library : XviD 1.2.1 (UTC 2008-12-04)
Audio #1
ID : 1
Format : AC-3
Format/Info : Audio Coding 3
Codec ID : 2000
Duration : 1h 30mn
Bit rate mode : Constant
Bit rate : 192 Kbps
Channel(s) : 2 channels
Channel positions : L R
Sampling rate : 48.0 KHz
Stream size : 124 MiB (9%)
Alignment : Split accross interleaves

Скриншот c названием фильма

Скриншоты

Скачать

Скачать торрент!

Как скачивать? · Что такое торрент? · Рейтинг и ограничения

Сайт не распространяет и не хранит электронные версии произведений, а лишь предоставляет доступ к создаваемому пользователями каталогу ссылок на торрент-файлы, которые содержат только списки хеш-сумм

[Профиль] [ЛС]
Показать сообщения:    
Ответить на тему

Текущее время: Сегодня 02:20

Часовой пояс: GMT + 4



Вы не можете начинать темы
Вы не можете отвечать на сообщения
Вы не можете редактировать свои сообщения
Вы не можете удалять свои сообщения
Вы не можете голосовать в опросах
Вы не можете прикреплять файлы к сообщениям
Вы не можете скачивать файлы