Нарушая правила / Bending the Rules (Арти Мандельберг / Artie Mandelberg) [2012, США, боевик, комедия, драма, HDRip-AVC] MVO (ViruseProject)

Ответить на тему
 
Автор Сообщение

user ®

Стаж: 7 лет 7 месяцев

Сообщений: 20008

Пост Пост: #1 от 20-Июл-2012 20:37

[Цитировать]

Нарушая правила / Bending the Rules
Страна: США
Жанр: боевик, комедия, драма
Год выпуска: 2012
Продолжительность: 01:23:36
Перевод: Любительский (многоголосый закадровый) - 14 голосов - (ViruseProject)
Cубтитры: нет
Режиссер: Арти Мандельберг / Artie Mandelberg
В ролях: Адам Коуплэнд, Джейми Кеннеди, Д’Арси Аллен, Тереза Альварез, Рэнди Остин, Кирк Бовилл, Кеннет Браун мл., Эрик Браун, Jan Chategnier, Томас С. Дэниэл и др.
Описание: Заместитель окружного прокурора настроен посадить коррумпированного Ново-Орлеанского полицейского. Однако, события завязываются таким образом, что они становятся бок о бок в борьбе против бандитских группировок...


Релиз: совместно с
Озвучка:
*Pro-Snip (Дмитрий Иванов )
*johnynu (Евгений Яковель)
*Vincent_2009 (Михаил Чадов)
*hi.sky (Игорь Кузнецов )
*Агент Смит (Александр Харченко )
*IgVin (Игорь Головин)
*48 kbps (Сергей Павловский )
*Berserk (Вячеслав Громов)
*viruse (Виталий Емельянов)
*Ёлка (Елена Емельянова)
*Solncekleshka (Татьяна Романовская)
*Lalusha (Алла Блаер)
*_Aldani_ (Полина Касаткина)
*devdoki (Дарья Евдокимова)
Перевод: Janetta
Редактор перевода, монтаж, сведение звука: viruse
*******************************

ВНИМАНИЕ!!! НАМ ТРЕБУЮТСЯ:

1) Мужские и Женские голоса
требование: наличие приличного микрофона и свободного времени
2) Переводчики
3) Монтажники/редакторы текста
Заранее отвечу на определенные вопросы:
1) Нет, сие творчество не оплачивается, все работаем на энтузиазме...
2) Нет, не годится тот микрофон, что на ноутбуке встроен или та фигня, что у вас за 100 рублей. Для скайпа в самый раз, для озвучки НЕТ!
Вообще более или менее сносные микрофоны идут от 2000 рублей (Шур, Аудиотехника и т.п.), многие продавцы данного продукта могут посоветовать нужный, так же куча чтива есть в интернете, ну и на крайний случай - если у Вас реально хороший голос и есть желание, то с удовольствием поможем выбрать нужный мик)
Желающие, пишите мне в личку!
*******************************
смотреть ТРЕЙЛЕР к фильму
смотреть СЕМПЛ озвучки на youtube
скачать СЕМПЛ с multi-up
Качество видео: HDRip-AVC
Формат видео: MKV
Видео: 720x384 (1.88:1), 23.976 fps, x264 ~2621 kbps avg, 0.395 bit/pixel
Аудио: 48 kHz, AC3 Dolby Digital, 3/2 (L,C,R,l,r) + LFE ch, ~384.00 kbps avg

MediaInfo

D:\ОЗВУЧКА\ХИХИДОК\НАРУШАЯ ПРАВИЛА\Bending.The.Rules.2012.BRRiP.AC3-5.1.x264-SiC.mkv
General
Unique ID : 239640394319791922519779831208977588614 (0xB4490FA640069385AD7F06CE8ADB6186)
Complete name : D:\ОЗВУЧКА\ХИХИДОК\НАРУШАЯ ПРАВИЛА\Bending.The.Rules.2012.BRRiP.AC3-5.1.x264-SiC.mkv
Format : Matroska
File size : 1.76 GiB
Duration : 1h 23mn
Overall bit rate : 3 006 Kbps
Encoded date : UTC 2012-04-16 04:55:43
Writing application : mkvmerge v5.2.1 ('A Far Off Place') built on Jan 2 2012 23:21:10
Writing library : libebml v1.2.3 + libmatroska v1.3.0
Video #1
ID : 1
Format : AVC
Format/Info : Advanced Video Codec
Format profile : High@L4.1
Format settings, CABAC : Yes
Format settings, ReFrames : 3 frames
Codec ID : V_MPEG4/ISO/AVC
Duration : 1h 23mn
Bit rate : 2 621 Kbps
Width : 720 pixels
Height : 384 pixels
Display aspect ratio : 1.875
Frame rate : 23.976 fps
Color space : YUV
Chroma subsampling : 4:2:0
Bit depth : 8 bits
Scan type : Progressive
Bits/(Pixel*Frame) : 0.395
Stream size : 1.50 GiB (85%)
Title : Bending.The.Rules.2012.BRRiP.AC3-5.1.x264-SiC
Writing library : x264 core 120 r2164 da19765
Encoding settings : cabac=1 / ref=4 / deblock=1:0:0 / analyse=0x3:0x133 / me=umh / subme=7 / psy=1 / psy_rd=1.00:0.00 / mixed_ref=1 / me_range=16 / chroma_me=1 / trellis=2 / 8x8dct=1 / cqm=0 / deadzone=21,11 / fast_pskip=1 / chroma_qp_offset=-2 / threads=3 / sliced_threads=0 / slices=4 / nr=0 / decimate=1 / interlaced=0 / bluray_compat=0 / constrained_intra=0 / bframes=4 / b_pyramid=1 / b_adapt=1 / b_bias=0 / direct=1 / weightb=1 / open_gop=0 / weightp=0 / keyint=23 / keyint_min=1 / scenecut=40 / intra_refresh=0 / rc_lookahead=23 / rc=2pass / mbtree=1 / bitrate=2621 / ratetol=1.0 / qcomp=0.60 / qpmin=10 / qpmax=51 / qpstep=4 / cplxblur=20.0 / qblur=0.5 / ip_ratio=1.40 / aq=1:1.00
Language : English
Audio #2
ID : 2
Format : AC-3
Format/Info : Audio Coding 3
Mode extension : CM (complete main)
Codec ID : A_AC3
Duration : 1h 23mn
Bit rate mode : Constant
Bit rate : 384 Kbps
Channel(s) : 6 channels
Channel positions : Front: L C R, Side: L R, LFE
Sampling rate : 48.0 KHz
Bit depth : 16 bits
Compression mode : Lossy
Stream size : 230 MiB (13%)
Language : English

Скриншот c названием фильма

Скриншоты

Скачать

Скачать торрент!

Как скачивать? · Что такое торрент? · Рейтинг и ограничения

Сайт не распространяет и не хранит электронные версии произведений, а лишь предоставляет доступ к создаваемому пользователями каталогу ссылок на торрент-файлы, которые содержат только списки хеш-сумм

[Профиль] [ЛС]
Показать сообщения:    
Ответить на тему

Текущее время: Сегодня 05:53

Часовой пояс: GMT + 4



Вы не можете начинать темы
Вы не можете отвечать на сообщения
Вы не можете редактировать свои сообщения
Вы не можете удалять свои сообщения
Вы не можете голосовать в опросах
Вы не можете прикреплять файлы к сообщениям
Вы не можете скачивать файлы