Сборник материалов по Друпалу(Drupal) на русском языке!!! [2009 г.]

Ответить на тему
 
Автор Сообщение

user ®

Стаж: 8 лет 7 месяцев

Сообщений: 20007

Пост Пост: #1 от 17-Июл-2012 10:00

[Цитировать]

Сборник материалов по Друпалу(Drupal) на русском языке!!! [2009 г.] Моя подборка информации по друпалу. Т.к. здесь нет русскоязычной инфы, то решил выложить.
Сам только начинаю в нем разбираться поэтому технические вопросы - не ко мне.
Здесь представлено:

Видео:

1. Видео с сайта drupal.by (качество не фонтан, но лучше пока нет)

Содержание

1 Инсталляция друпала (Наглядные примеры установки и конфигурации друпала)
2 Локализация друпала
3 Создание нового материала (Пример создания страницы подшивки)
4 Taxonomy Таксономия (Drupal и категоризование материалов)
5 Comment Комментарии (Комментарии и их настройка)
6 Pathauto (Настройка Pathauto)
7-1 - drupal 6 - imagefield 7-2 drupal 6 - imagefield 8006000 (Настройка изображений при помощи cck, filefield, imageapi, imagecache и imagefield - видеоурок №7)

Качество видео

E:\Downloads DM\Drupal\drupal.by\3 Создание нового материала - Drupal.flv
General
Complete name : E:\Downloads DM\Drupal\drupal.by\3 Создание нового материала - Drupal.flv
Format : Flash Video
File size : 3.65 MiB
Duration : 2mn 22s
Overall bit rate : 215 Kbps
Writing application : YouTube, Inc.
Tagging application : YouTube Metadata Injector.
Video
Format : H.263
Duration : 2mn 22s
Bit rate : 215 Kbps
Width : 320 pixels
Height : 240 pixels
Display aspect ratio : 4/3
Frame rate mode : Constant
Frame rate : 15.000 fps
Bits/(Pixel*Frame) : 0.186
Audio
Format : MPEG Audio
Format version : Version 2
Format profile : Layer 3
Duration : 2mn 22s
Bit rate mode : Variable
Channel(s) : 1 channel
Sampling rate : 22.05 KHz
Resolution : 16 bits
2. 11 видео с drupalcon.ru "Семинар Управление сайтом с помощью CMS Drupal".

Содержание

1. Вступление.
2. Терминология.
3. Коробка Друпала, мифы Друпала, мастер-класс "сайт-визитка".
4. Stand alone блоггинг, мастер-класс "персональный блог".
5. Доклад о хостинге.
6. SEO.
7. SEO2.
8. Программирование под Друпал.
9. CCK + Views, мастер-класс "коллективный блог с элементами социальной сети".
10. Интеграция с внешними системами
11.Вопросы и ответы.

Качество видео

E:\Downloads DM\Drupal\drupalcon.ru Семинар Управление сайтом с помощью CMS Drupal\part3.avi
General
Complete name : E:\Downloads DM\Drupal\drupalcon.ru Семинар Управление сайтом с помощью CMS Drupal\part3.avi
Format : AVI
Format/Info : Audio Video Interleave
File size : 326 MiB
Duration : 32mn 16s
Overall bit rate : 1412 Kbps
Video
Format : S-Mpeg 4 v2
Codec ID : MP42
Codec ID/Info : Microsoft MPEG-4 V2
Duration : 32mn 16s
Bit rate : 382 Kbps
Width : 360 pixels
Height : 288 pixels
Display aspect ratio : 5/4
Frame rate : 25.000 fps
Resolution : 24 bits
Bits/(Pixel*Frame) : 0.148
Stream size : 88.2 MiB (27%)
Title : part3-1.avi Видео #1
Audio
Format : PCM
Format settings, Endianness : Little
Format settings, Sign : Unsigned
Codec ID : 1
Codec ID/Hint : Microsoft
Duration : 32mn 16s
Bit rate mode : Constant
Bit rate : 1024 Kbps
Channel(s) : 2 channels
Sampling rate : 32.0 KHz
Resolution : 16 bits
Stream size : 236 MiB (73%)
Interleave, duration : 256 ms (6.40 video frames)
Title : part3-1.avi Аудио #1
Презентации в формате odp(OpenOffice) с этого же семинара на те же темы
3. Скринкасты по созданию аналога Хабра на друпале.
Формат флеш, качество хорошее.

Учебники pdf

1.Вводный курс по Drupal
2.BZ-DRUPAL-hand_book
3.Поддержка-1.0
4.Таксономия-1.1
Есть информация о "Связь с сервисами google".(рекламные материалы, информация по API Google)

Скрины

[img] [/img] [img] [/img] [img] [/img]
Скачать

Скачать торрент!

Как скачивать? · Что такое торрент? · Рейтинг и ограничения

Сайт не распространяет и не хранит электронные версии произведений, а лишь предоставляет доступ к создаваемому пользователями каталогу ссылок на торрент-файлы, которые содержат только списки хеш-сумм

[Профиль] [ЛС]
Показать сообщения:    
Ответить на тему

Текущее время: Сегодня 15:44

Часовой пояс: GMT + 4



Вы не можете начинать темы
Вы не можете отвечать на сообщения
Вы не можете редактировать свои сообщения
Вы не можете удалять свои сообщения
Вы не можете голосовать в опросах
Вы не можете прикреплять файлы к сообщениям
Вы не можете скачивать файлы