Как создать сайт на uCoz - видео урок Алекса Волкова [2010 г.]

Ответить на тему
 
Автор Сообщение

user ®

Стаж: 8 лет 7 месяцев

Сообщений: 20007

Пост Пост: #1 от 17-Июл-2012 09:57

[Цитировать]

Как создать сайт на uCoz - видео урок Алекса Волкова
Производитель: Алекс Волков
Год выпуска: 2010
Язык: русский
Описание: Подробное объяснение создания сайта в системе uCoz.
Format : Windows Media
File size : 117 MiB
Duration : 16mn 24s
Overall bit rate mode : Constant
Overall bit rate : 1 001 Kbps
Maximum Overall bit rate : 8 284 Kbps
Movie name : Как создать сайт на uCoz
Encoded date : UTC 2010-07-16 08:02:30.658
Comment : видео урок
Видео кодек: Windows Media
Видео: ID : 1 Format : VC-1 Format profile : MP@HL Codec ID : WMV3 Codec ID/Info : Windows Media Video 9 Codec ID/Hint : WMV3 Description of the codec : Windows Media Video 9 - Professional Duration : 16mn 25s Bit rate mode : Constant Bit rate : 8 192 Kbps Width : 1 024 pixels Height : 768 pixels Display aspect ratio : 4:3 Frame rate : 1.000 fps Resolution : 8 bits Scan type : Progressive Bits/(Pixel*Frame) : 10.417 Stream size : 962 MiB
Аудио: ID : 2 Format : WMA Format version : Version 2 Codec ID : 161 Codec ID/Info : Windows Media Audio Description of the codec : Windows Media Audio 9.2 - 32 kbps, 32 kHz, stereo 1-pass CBR Duration : 16mn 24s Bit rate mode : Constant Bit rate : 32.0 Kbps Channel(s) : 2 channels Sampling rate : 32.0 KHz Resolution : 16 bits Stream size : 3.76 MiB (3%)

Скриншоты

Все недовольные жалуйтесь сюда
Скачать

Скачать торрент!

Как скачивать? · Что такое торрент? · Рейтинг и ограничения

Сайт не распространяет и не хранит электронные версии произведений, а лишь предоставляет доступ к создаваемому пользователями каталогу ссылок на торрент-файлы, которые содержат только списки хеш-сумм

[Профиль] [ЛС]
Показать сообщения:    
Ответить на тему

Текущее время: Сегодня 19:00

Часовой пояс: GMT + 4



Вы не можете начинать темы
Вы не можете отвечать на сообщения
Вы не можете редактировать свои сообщения
Вы не можете удалять свои сообщения
Вы не можете голосовать в опросах
Вы не можете прикреплять файлы к сообщениям
Вы не можете скачивать файлы