Битва за любовь / Fight for Love / Sheng Si Bo Ji / Qing Xian Lei Tai (Кэш Чин / Cash Chin) [2007 г., боевик, мелодрама, DVDRip]

Ответить на тему
 
Автор Сообщение

user ®

Стаж: 11 лет

Сообщений: 15151

Пост Пост: #1 от 19-Июн-2012 09:46

[Цитировать]

Битва за любовь / Fight for Love / Sheng Si Bo Ji / Qing Xian Lei Tai Год выпуска: 2007
Страна: Гонконг
Жанр: боевик, мелодрама
Продолжительность: 01:24:02
Перевод: Одноголосый закадровый Акира
Режиссер: Кэш Чин / Cash Chin
В ролях: Юэнь Бяо, Йойо Мунг, Ли Бинг-Бинг, Харашима Даичи, Чеунг Квок-Кеунг, Филип Нг
Описание: Хеунг (Юэнь Бяо) – мастер боевых искусств, преподающий кунгфу в центре досуга. Через стенку от него обучает детей музыке героиня Ли Бинг-Бинг. У нее учится мальчик по имени Тунг (Даичи Хирошима), который на самом деле мечтает заниматься восточными единоборствами. Хеунг соглашается взять его в ученики, но оказывается, что он хорошо знает его родителей (Йойо Мунг и Чеунг Квок-Кеунг) – когда-то они были друзьями, но любовный треугольник заставил их пути разойтись…
Рип от
Качество видео: DVDRip
Формат файла: AVI
Видео: 608x336 (1.78:1), 23.976 fps, XviD MPEG-4, 1015 kbps, 0.23 bit/pixel
Аудио 1: 48 kHz, MPEG Layer 3, 2 ch, 128 kbps [Russian]
Аудио 2: 48 kHz, MPEG Layer 3, 2 ch, 128 kbps [Chinese]

MediaInfo

General
Format : AVI
Format/Info : Audio Video Interleave
File size : 773 MiB
Duration : 1h 24mn
Overall bit rate : 1 285 Kbps
Writing application : VirtualDubModRus 1.5.10.2 (build 2542/release)
Writing library : VirtualDubMod build 2542/release
Video
ID : 0
Format : MPEG-4 Visual
Format profile : Advanced Simple@L5
Format settings, BVOP : Yes
Format settings, QPel : No
Format settings, GMC : No warppoints
Format settings, Matrix : Default (H.263)
Muxing mode : Packed bitstream
Codec ID : XVID
Codec ID/Hint : XviD
Duration : 1h 24mn
Bit rate : 1 015 Kbps
Width : 608 pixels
Height : 336 pixels
Display aspect ratio : 16:9
Frame rate : 23.976 fps
Color space : YUV
Chroma subsampling : 4:2:0
Bit depth : 8 bits
Scan type : Progressive
Bits/(Pixel*Frame) : 0.207
Stream size : 611 MiB (79%)
Writing library : XviD 1.1.0 (UTC 2005-11-22)
Audio #1
ID : 1
Format : MPEG Audio
Format version : Version 1
Format profile : Layer 3
Codec ID : 55
Codec ID/Hint : MP3
Duration : 1h 24mn
Bit rate mode : Constant
Bit rate : 128 Kbps
Channel(s) : 2 channels
Sampling rate : 48.0 KHz
Stream size : 77.0 MiB (10%)
Alignment : Split accross interleaves
Interleave, duration : 42 ms (1.00 video frame)
Interleave, preload duration : 500 ms
Audio #2
ID : 2
Format : MPEG Audio
Format version : Version 1
Format profile : Layer 3
Codec ID : 55
Codec ID/Hint : MP3
Duration : 1h 24mn
Bit rate mode : Constant
Bit rate : 128 Kbps
Channel(s) : 2 channels
Sampling rate : 48.0 KHz
Stream size : 77.0 MiB (10%)
Alignment : Split accross interleaves
Interleave, duration : 42 ms (1.00 video frame)
Interleave, preload duration : 500 ms

Скриншоты

Скачать

Скачать торрент! Битва за любовь / Fight for Love / Sheng Si Bo Ji / Qing Xian Lei Tai (Кэш Чин / Cash Chin) [2007 г., боевик, мелодрама, DVDRip]

Как скачивать? · Что такое торрент? · Рейтинг и ограничения

Сайт не распространяет и не хранит электронные версии произведений, а лишь предоставляет доступ к создаваемому пользователями каталогу ссылок на торрент-файлы, которые содержат только списки хеш-сумм

[Профиль] [ЛС]
Показать сообщения:    
Ответить на тему

Текущее время: Сегодня 20:38

Часовой пояс: GMT + 4



Вы не можете начинать темы
Вы не можете отвечать на сообщения
Вы не можете редактировать свои сообщения
Вы не можете удалять свои сообщения
Вы не можете голосовать в опросах
Вы не можете прикреплять файлы к сообщениям
Вы не можете скачивать файлы