Дон 2 / Don 2 (Фархан Ахтар / Farhan Akhtar) [2011, Индия, Боевик, криминал, BDRip 720p] MVO (ZEE TV) + VO (zamez) + MVO (Gravi-TV) + Original (Hindi) + Sub (Rus, Eng)

Ответить на тему
 
Автор Сообщение

user ®

Стаж: 12 лет

Сообщений: 15124

Пост Пост: #1 от 19-Июн-2012 09:20

[Цитировать]

Дон 2 / Don 2
-Страна: Индия
Жанр: Боевик, криминал
Год выпуска: 2011
Продолжительность: 02:27:47-Язык: Хинди
Перевод #1: Профессиональный (многоголосый, закадровый) - ZEE TV
Перевод #2: Любительский (одноголосый, закадровый) - zamez
Перевод #3: Любительский (многоголосый, закадровый) - Alex White & Irene Black & Mallika и Хамстер-Cубтитры: Русские (#песни; #фильм)
Перевод и редакция: nml68
Другие субтитры: Английские-Режиссер: Фархан Ахтар / Farhan Akhtar-В ролях: Шахрукх Кхан, Приянка Чопра, Ом Пури, Боман Ирани, Лара Датта, Ритик Рошан, Кунал Капур-Описание: Став королем азиатского преступного мира, Дон (Шахрукх Кхан) в настоящее время нацелился на господство в европейском преступном мире. На его пути находятся нынешние боссы и все правоохранительные органы-Качество видео: BDRip 720p (Blu-Ray @ TmG)
Формат видео: MKV-Видео: AVC, 4844 Kбит/сек, 1280x544, 24 fps
Аудио #1: AC3, 48 КHz, 2 сh, 192 Kbps [Rus] - ZEE TV
Аудио #2: AC3, 48 КHz, 2 сh, 192 Kbps [Rus] - zamez
Аудио #3: AC3, 48 КHz, 2 сh, 192 Kbps [Rus] - ICG (перевод на русский язык: Margosha и Анджелина)
Аудио #4: DTS, 48 КHz, 6 сh, 1510 Kbps [Hindi]
Формат субтитров: softsub (SRT)-Релиз: и ZnaemTolk
Синхронизация аудио, сборка: soso4eg
Большое спасибо Викуле за запись звука с канала ZEE TV--Сэмпл / Sample- --

Mediainfo

Полное имя : G:\[Релизы]\[HD.BDRip]\DON.2.2011.x264.BDRip.720р.BwTorrents.mkv
Формат : Matroska
Версия формата : Version 2
Размер файла : 7,15 Гбайт
Продолжительность : 2 ч. 27 м.
Общий поток : 6930 Кбит/сек
Дата кодирования : UTC 2012-05-18 13:34:01
Программа кодирования : mkvmerge v4.0.0 ('The Stars were mine') сборка от Jun 6 2010 16:18:42
Библиотека кодирования : libebml v1.0.0 + libmatroska v1.0.0
Видео
Идентификатор : 1
Формат : AVC
Формат/Информация : Advanced Video Codec
Профиль формата : High@L3.1
Параметр CABAC формата : Да
Параметр ReFrames формата : 4 кадра
Идентификатор кодека : V_MPEG4/ISO/AVC
Продолжительность : 2 ч. 27 м.
Битрейт : 4844 Кбит/сек
Ширина : 1280 пикселей
Высота : 544 пикселя
Соотношение сторон : 2,35:1
Частота кадров : 24,000 кадра/сек
Цветовое пространство : YUV
Субдискретизация насыщенности : 4:2:0
Битовая глубина : 8 бит
Тип развёртки : Прогрессивная
Бит/(Пиксели*Кадры) : 0.290
Размер потока : 4,85 Гбайт (68%)
Библиотека кодирования : x264 core 120 r2164 da19765
Настройки программы : cabac=1 / ref=3 / deblock=1:0:0 / analyse=0x3:0x113 / me=hex / subme=7 / psy=1 / psy_rd=1.00:0.00 / mixed_ref=1 / me_range=16 / chroma_me=1 / trellis=1 / 8x8dct=1 / cqm=0 / deadzone=21,11 / fast_pskip=1 / chroma_qp_offset=-2 / threads=3 / sliced_threads=0 / nr=0 / decimate=1 / interlaced=0 / bluray_compat=0 / constrained_intra=0 / bframes=3 / b_pyramid=2 / b_adapt=1 / b_bias=0 / direct=1 / weightb=1 / open_gop=0 / weightp=2 / keyint=240 / keyint_min=24 / scenecut=40 / intra_refresh=0 / rc_lookahead=40 / rc=2pass / mbtree=1 / bitrate=4844 / ratetol=1.0 / qcomp=0.60 / qpmin=0 / qpmax=69 / qpstep=4 / cplxblur=20.0 / qblur=0.5 / ip_ratio=1.40 / aq=1:1.00
Язык : English
Аудио #1
Идентификатор : 2
Формат : AC-3
Формат/Информация : Audio Coding 3
Расширение режима : CM (complete main)
Идентификатор кодека : A_AC3
Продолжительность : 2 ч. 27 м.
Вид битрейта : Постоянный
Битрейт : 192 Кбит/сек
Каналы : 2 канала
Расположение каналов : Front: L R
Частота : 48,0 КГц
Битовая глубина : 16 бит
Метод сжатия : С потерями
Размер потока : 203 Мбайт (3%)
Заголовок : MVO [ZEE TV] -=soso4eg=-BwT.Ru=-
Язык : Russian
Аудио #2
Идентификатор : 3
Формат : AC-3
Формат/Информация : Audio Coding 3
Расширение режима : CM (complete main)
Идентификатор кодека : A_AC3
Продолжительность : 2 ч. 27 м.
Вид битрейта : Постоянный
Битрейт : 192 Кбит/сек
Каналы : 2 канала
Расположение каналов : Front: L R
Частота : 48,0 КГц
Битовая глубина : 16 бит
Метод сжатия : С потерями
Размер потока : 203 Мбайт (3%)
Заголовок : VO [zamez] -=soso4eg=-BwT.Ru=-
Язык : Russian
Аудио #3
Идентификатор : 4
Формат : AC-3
Формат/Информация : Audio Coding 3
Расширение режима : CM (complete main)
Идентификатор кодека : A_AC3
Продолжительность : 2 ч. 27 м.
Вид битрейта : Постоянный
Битрейт : 192 Кбит/сек
Каналы : 2 канала
Расположение каналов : Front: L R
Частота : 48,0 КГц
Битовая глубина : 16 бит
Метод сжатия : С потерями
Размер потока : 203 Мбайт (3%)
Заголовок : MVO [ICG] -=soso4eg=-BwT.Ru=-
Язык : Russian
Аудио #4
Идентификатор : 5
Формат : DTS
Формат/Информация : Digital Theater Systems
Идентификатор кодека : A_DTS
Продолжительность : 2 ч. 27 м.
Вид битрейта : Постоянный
Битрейт : 1510 Кбит/сек
Каналы : 6 каналов
Расположение каналов : Front: L C R, Side: L R, LFE
Частота : 48,0 КГц
Битовая глубина : 24 бит
Метод сжатия : С потерями
Задержка видео : 11 мс.
Размер потока : 1,56 Гбайт (22%)
Язык : Hindi
Текст #1
Идентификатор : 6
Формат : UTF-8
Идентификатор кодека : S_TEXT/UTF8
Идентификатор кодека/Информация : UTF-8 Plain Text
Заголовок : Songs [nml68]
Язык : Russian
Текст #2
Идентификатор : 7
Формат : UTF-8
Идентификатор кодека : S_TEXT/UTF8
Идентификатор кодека/Информация : UTF-8 Plain Text
Заголовок : Full [nml68]
Язык : Russian
Текст #3
Идентификатор : 8
Формат : UTF-8
Идентификатор кодека : S_TEXT/UTF8
Идентификатор кодека/Информация : UTF-8 Plain Text
Язык : English
Меню
00:00:00.000 : en:00:00:00.000
00:03:41.500 : en:00:03:41.500
00:08:31.500 : en:00:08:31.500
00:13:09.833 : en:00:13:09.833
00:25:26.333 : en:00:25:26.333
00:30:29.750 : en:00:30:29.750
00:36:46.500 : en:00:36:46.500
00:43:40.208 : en:00:43:40.208
00:49:04.000 : en:00:49:04.000
00:51:25.292 : en:00:51:25.292
00:56:18.542 : en:00:56:18.542
01:04:36.500 : en:01:04:36.500
01:08:38.083 : en:01:08:38.083
01:11:23.417 : en:01:11:23.417
01:14:57.750 : en:01:14:57.750
01:19:25.083 : en:01:19:25.083
01:33:02.458 : en:01:33:02.458
01:35:45.083 : en:01:35:45.083
01:44:13.500 : en:01:44:13.500
01:50:54.000 : en:01:50:54.000
02:02:29.625 : en:02:02:29.625
02:07:23.083 : en:02:07:23.083
02:11:54.250 : en:02:11:54.250
02:13:45.167 : en:02:13:45.167
02:17:39.750 : en:02:17:39.750
-

Скриншот с названием:

-

Скриншоты:

--
Скачать

Скачать торрент! Дон 2 / Don 2 (Фархан Ахтар / Farhan Akhtar) [2011, Индия, Боевик, криминал, BDRip 720p] MVO (ZEE TV) + VO (zamez) + MVO (Gravi-TV) + Original (Hindi) + Sub (Rus, Eng)

Как скачивать? · Что такое торрент? · Рейтинг и ограничения

Сайт не распространяет и не хранит электронные версии произведений, а лишь предоставляет доступ к создаваемому пользователями каталогу ссылок на торрент-файлы, которые содержат только списки хеш-сумм

[Профиль] [ЛС]
Показать сообщения:    
Ответить на тему

Текущее время: Сегодня 13:07

Часовой пояс: GMT + 4



Вы не можете начинать темы
Вы не можете отвечать на сообщения
Вы не можете редактировать свои сообщения
Вы не можете удалять свои сообщения
Вы не можете голосовать в опросах
Вы не можете прикреплять файлы к сообщениям
Вы не можете скачивать файлы