Японская жена / The Japanese Wife (Апарна Сен / Aparna Sen) [2010, Индия, Драма, Мелодрама, DVDRip] VO Maneater1987

Ответить на тему
 
Автор Сообщение

user ®

Стаж: 12 лет

Сообщений: 15125

Пост Пост: #1 от 19-Июн-2012 09:20

[Цитировать]

Японская жена / The Japanese Wife
Страна: Индия
Жанр: Драма, Мелодрама
Год выпуска: 2010
Продолжительность: 01:40:49
Перевод: Catnat
Озвучивание: Одноголосое закадровое
Cубтитры: нет
Оригинальная аудиодорожка: Хинди (Бенгали) / Английский / Японский
Режиссер: Апарна Сен / Aparna Sen
В ролях: Рахул Бозе, Чигуса Такаку, Райма Сен, Моушми Чаттерджи, Рудранил Гхош, Джаганнатх Гуха
Описание: Молодой человек из Индии начинает переписываться на английском с девушкой из Японии.
Он сирота, застенчив, его воспитала тётя, с которой они живут довольно скромно.
Он преподает математику в деревне, где нет практически никаких благ цивилизации.
Он привыкает к письмам, которые приходят каждую неделю, а постепенно и вся деревня узнаёт об этой странной связи.
Девушка, хотя и не богата, периодически присылает ему посылки с трогательным содержимым:
то тёплые вязанные носки, то альбом со своими фото, то фотоаппарат.
А однажды она присылает ему кольцо и они начинают считать друга супругами.
Они очень хотят встретиться, но масса причин и препятствия материального характера постоянно у них на пути.
Такая необычная связь длится уже 17 лет. Они всего несколько раз говорили по телефону и никогда ещё не видели друг друга...
Доп. информация:
Международный рейтинг IMDB: 7.0 из 10 (более 500 голосов)
Российский рейтинг КиноПоиск: 7.111 из 10 (около 10 голосов) + рецензии зрителей
Участник международных кинофестивалей в Австралии, США, Японии
Сэмпл: http://multi-up.com/632479
Качество видео: DVDRip
Формат видео: AVI
Видео: Xvid, 704x352, 1 604 Kbps, 25.00fps, 0.259 Bits/Pixel
Аудио 1: Russian: AC3 Dolby Digital, 192 kb/s (2 ch), 48.0 KHz
Аудио 2: Original: AC3 Dolby Digital, 256 kb/s (2 ch), 48.0 KHz

MediaInfo

General
Complete name : D:\Загрузки\Japonskaja.zhena.2010.L1.DVDRip.avi
Format : AVI
Format/Info : Audio Video Interleave
File size : 1.45 GiB
Duration : 1h 40mn
Overall bit rate : 2 056 Kbps
Writing application : VirtualDubMod 1.5.10.2 (build 2540/release)
Writing library : VirtualDubMod build 2540/release
Video
ID : 0
Format : MPEG-4 Visual
Format profile : Advanced Simple@L5
Format settings, BVOP : Yes
Format settings, QPel : No
Format settings, GMC : No warppoints
Format settings, Matrix : Default (MPEG)
Codec ID : XVID
Codec ID/Hint : XviD
Duration : 1h 40mn
Bit rate : 1 604 Kbps
Width : 704 pixels
Height : 352 pixels
Display aspect ratio : 2.000
Frame rate : 25.000 fps
Color space : YUV
Chroma subsampling : 4:2:0
Bit depth : 8 bits
Scan type : Progressive
Bits/(Pixel*Frame) : 0.259
Stream size : 1.13 GiB (78%)
Writing library : XviD 1.1.2 (UTC 2006-11-01)
Audio #1
ID : 1
Format : AC-3
Format/Info : Audio Coding 3
Mode extension : CM (complete main)
Codec ID : 2000
Duration : 1h 35mn
Bit rate mode : Constant
Bit rate : 192 Kbps
Channel(s) : 2 channels
Channel positions : Front: L R
Sampling rate : 48.0 KHz
Bit depth : 16 bits
Stream size : 131 MiB (9%)
Alignment : Split accross interleaves
Interleave, duration : 42 ms (1.06 video frame)
Interleave, preload duration : 500 ms
Audio #2
ID : 2
Format : AC-3
Format/Info : Audio Coding 3
Mode extension : CM (complete main)
Codec ID : 2000
Duration : 1h 40mn
Bit rate mode : Constant
Bit rate : 256 Kbps
Channel(s) : 2 channels
Channel positions : Front: L R
Sampling rate : 48.0 KHz
Bit depth : 16 bits
Stream size : 185 MiB (12%)
Alignment : Aligned on interleaves
Interleave, duration : 40 ms (1.00 video frame)
Interleave, preload duration : 512 ms

Скриншот c названием фильма

Скриншоты

Скачать

Скачать торрент! Японская жена / The Japanese Wife (Апарна Сен / Aparna Sen) [2010, Индия, Драма, Мелодрама, DVDRip] VO Maneater1987

Как скачивать? · Что такое торрент? · Рейтинг и ограничения

Сайт не распространяет и не хранит электронные версии произведений, а лишь предоставляет доступ к создаваемому пользователями каталогу ссылок на торрент-файлы, которые содержат только списки хеш-сумм

[Профиль] [ЛС]
Показать сообщения:    
Ответить на тему

Текущее время: Сегодня 00:58

Часовой пояс: GMT + 4



Вы не можете начинать темы
Вы не можете отвечать на сообщения
Вы не можете редактировать свои сообщения
Вы не можете удалять свои сообщения
Вы не можете голосовать в опросах
Вы не можете прикреплять файлы к сообщениям
Вы не можете скачивать файлы