Разрешите тебя поцеловать... снова (Юрий Морозов) [2012, мелодрама, комедия, DVB]

Ответить на тему
 
Автор Сообщение

user ®

Стаж: 7 лет 10 месяцев

Сообщений: 20008

Пост Пост: #1 от 19-Июн-2012 09:13

[Цитировать]

Разрешите тебя поцеловать... снова
Жанр: мелодрама, комедия
Год выпуска: 2012
Продолжительность: 01:52:28
Режиссёр: Юрий Морозов
В ролях: Мария Куликова, Игорь Лифанов, Борис Щербаков, Алёна Корнева, Анастасия Красильникова
Описание: Прошло время, и в семье майора Григория Власова и прапорщика Натальи Киселевой наметился разлад. В воинскую часть, где служат супруги, приезжает новенькая медсестра - эффектная блондинка Марина Королькова. Ей нравится Власов, и она пытается его соблазнить. Григорий смущен, Наталья в бешенстве, а дочка Власова, Муха, объявляет Корольковой войну. Взрослые ссорятся, а Муха делает всё возможное, чтобы помирить родителей...
Семпл: http://multi-up.com/720251
Качество видео: DVB
Формат видео: MPEG-TS
Видео: MPEG-2 Video, 720x576 (4:3), VBR, 25 fps, 3380 Kbps, 0.33 bit/pixel
Аудио: 48 kHz, MPEG Audio, 2 ch, 192 kbps

Отчет Bitrate Viewer

MediaInfo

General
ID : 1 (0x1)
Complete name : C:Разрешите тебя поцеловать... снова_2012_DVB_by_dean10.ts
Format : MPEG-TS
File size : 2.95 GiB
Duration : 1h 52mn
Overall bit rate mode : Variable
Overall bit rate : 3 759 Kbps
Video
ID : 7081 (0x1BA9)
Menu ID : 1 (0x1)
Format : MPEG Video
Format version : Version 2
Format profile : Main@Main
Format settings, BVOP : Yes
Format settings, Matrix : Custom
Codec ID : 2
Duration : 1h 52mn
Bit rate mode : Variable
Bit rate : 3 380 Kbps
Maximum bit rate : 15.0 Mbps
Width : 720 pixels
Height : 576 pixels
Display aspect ratio : 4:3
Frame rate : 25.000 fps
Standard : PAL
Color space : YUV
Chroma subsampling : 4:2:0
Bit depth : 8 bits
Scan type : Interlaced
Scan order : Top Field First
Compression mode : Lossy
Bits/(Pixel*Frame) : 0.326
Stream size : 2.66 GiB (90%)
Audio
ID : 7082 (0x1BAA)
Menu ID : 1 (0x1)
Format : MPEG Audio
Format version : Version 1
Format profile : Layer 2
Codec ID : 3
Duration : 1h 52mn
Bit rate mode : Constant
Bit rate : 192 Kbps
Channel(s) : 2 channels
Sampling rate : 48.0 KHz
Compression mode : Lossy
Stream size : 154 MiB (5%)
Language : Russian

Скриншот c названием фильма

Скриншоты

Скачать

Скачать торрент!

Как скачивать? · Что такое торрент? · Рейтинг и ограничения

Сайт не распространяет и не хранит электронные версии произведений, а лишь предоставляет доступ к создаваемому пользователями каталогу ссылок на торрент-файлы, которые содержат только списки хеш-сумм

[Профиль] [ЛС]
Показать сообщения:    
Ответить на тему

Текущее время: Сегодня 15:55

Часовой пояс: GMT + 4



Вы не можете начинать темы
Вы не можете отвечать на сообщения
Вы не можете редактировать свои сообщения
Вы не можете удалять свои сообщения
Вы не можете голосовать в опросах
Вы не можете прикреплять файлы к сообщениям
Вы не можете скачивать файлы