Мексиканский вояж Степаныча (Максим Воронков) [2012 г., Комедия, SATRip]

Ответить на тему
 
Автор Сообщение

user ®

Стаж: 7 лет 7 месяцев

Сообщений: 20008

Пост Пост: #1 от 19-Июн-2012 09:13

[Цитировать]

Мексиканский вояж Степаныча- Страна: Россия
Жанр: Комедия
Год выпуска: 2012
Продолжительность: 01:20:38-Режиссёр: Максим Воронков-В ролях: Илья Олейников, Татьяна Догилева, Михаил Владимиров, Лариса Удовиченко, Алиса Гребенщикова, Борис Грачевский, Жан Даниэль, Михаил Державин, Олег Флеер, Александр Числов, Ирина Дмитракова-Описание: У Степаныча депрессия, он потерял смысл жизни. Но внезапно сама судьба подсказывает ему выход. Из московской тюрьмы в Мексику сбежал Ваха. Степаныч получает задание от спецслужб: ехать вместе со своим старым другом Семеном в Мексику под видом простых туристов, кутить и дебоширить, вести себя как можно заметнее, а когда Ваха не выдержит и попытается убить Степаныча, его обезвредит майор Елена, которая всегда будет рядом под видом жены...- -Качество видео: SATRip
Формат видео: AVI
Видео: 720x400 (1.8:1), XviD 1.2.1, 25 fps, 2222 Kbps
Аудио: MPEG Audio Layer 3, 48 kHz, stereo, 192 kbps-

MediaInfo

Format : AVI
Format/Info : Audio Video Interleave
File size : 1.37 GiB
Duration : 1h 20mn
Overall bit rate : 2 424 Kbps
Writing application : VirtualDubMod 1.5.10.3 | www.virtualdub-fr.org || (build 2550/release)
Writing library : VirtualDubMod build 2550/release
Video
ID : 0
Format : MPEG-4 Visual
Format profile : Advanced Simple@L5
Format settings, BVOP : 1
Format settings, QPel : No
Format settings, GMC : No warppoints
Format settings, Matrix : Default (H.263)
Codec ID : XVID
Codec ID/Hint : XviD
Duration : 1h 20mn
Bit rate : 2 222 Kbps
Width : 720 pixels
Height : 400 pixels
Display aspect ratio : 16:9
Frame rate : 25.000 fps
Color space : YUV
Chroma subsampling : 4:2:0
Bit depth : 8 bits
Scan type : Progressive
Compression mode : Lossy
Bits/(Pixel*Frame) : 0.309
Stream size : 1.25 GiB (92%)
Writing library : XviD 1.2.1 (UTC 2008-12-04)
Audio
ID : 1
Format : MPEG Audio
Format version : Version 1
Format profile : Layer 3
Codec ID : 55
Codec ID/Hint : MP3
Duration : 1h 20mn
Bit rate mode : Constant
Bit rate : 192 Kbps
Channel(s) : 2 channels
Sampling rate : 48.0 KHz
Compression mode : Lossy
Stream size : 111 MiB (8%)
Alignment : Aligned on interleaves
Interleave, duration : 40 ms (1.00 video frame)
Interleave, preload duration : 504 ms
Writing library : LAME3.98r
Encoding settings : -m s -V 4 -q 2 -lowpass 18.6 -b 192

Скриншот c названием фильма

Скриншоты


Скачать

Скачать торрент!

Как скачивать? · Что такое торрент? · Рейтинг и ограничения

Сайт не распространяет и не хранит электронные версии произведений, а лишь предоставляет доступ к создаваемому пользователями каталогу ссылок на торрент-файлы, которые содержат только списки хеш-сумм

[Профиль] [ЛС]
Показать сообщения:    
Ответить на тему

Текущее время: Сегодня 11:39

Часовой пояс: GMT + 4



Вы не можете начинать темы
Вы не можете отвечать на сообщения
Вы не можете редактировать свои сообщения
Вы не можете удалять свои сообщения
Вы не можете голосовать в опросах
Вы не можете прикреплять файлы к сообщениям
Вы не можете скачивать файлы