Последний герой (Виктор Татарский) [2012, боевик, криминал, драма, SATRip]

Ответить на тему
 
Автор Сообщение

user ®

Стаж: 7 лет 7 месяцев

Сообщений: 20008

Пост Пост: #1 от 19-Июн-2012 09:13

[Цитировать]

Последний герой- -Жанр: боевик, криминал, драма
Год выпуска: 2012
Продолжительность: 01:23:39-Режиссёр: Виктор Татарский (II)-В ролях: Михаил Полосухин, Денис Синявский, Людмила Курепова, Геннадий Смирнов-Описание: Когда-то Андрей служил в "горячей точке" и однажды спас жизнь сослуживцу. Сегодня он мирно живет в Петербурге, работает врачом, живет с замечательной женой Катей, которая ждет ребенка. Но однажды в дом приходит беда: Андрея сильно избивают, и через несколько дней он умирает в больнице. Полиция не торопится разбираться в обстоятельствах дела, а Кате, которая пытается добиться справедливости, начинают угрожать расправой. Неожиданно на пороге ее дома появляется Виктор - тот самый солдат, которого спас Андрей...- -Качество видео: SATRip
Формат видео: AVI
Видео: 720x392 (1.84:1), 25 fps, XviD MPEG-4 ~1993 kbps avg, 0.28 bit/pixel
Аудио: 48 kHz, MPEG Layer 3, 2 ch, ~128.00 kbps

MediaInfo

General
Complete name : D:\Torrents\Posledniy.geroy.2012.SATRip.RiperAM.avi
Format : AVI
Format/Info : Audio Video Interleave
File size : 1.25 GiB
Duration : 1h 23mn
Overall bit rate : 2 132 Kbps
Writing application : VirtualDubMod 1.5.10.2 (build 2540/release)
Writing library : VirtualDub build 29808/release
Video #0
ID : 0
Format : MPEG-4 Visual
Format profile : AdvancedSimple@L5
Format settings, BVOP : Yes
Format settings, QPel : No
Format settings, GMC : No warppoints
Format settings, Matrix : Default (H.263)
Muxing mode : Packed bitstream
Codec ID : XVID
Codec ID/Hint : XviD
Duration : 1h 23mn
Bit rate : 1 994 Kbps
Width : 720 pixels
Height : 392 pixels
Display aspect ratio : 16:9
Frame rate : 25.000 fps
Resolution : 24 bits
Colorimetry : 4:2:0
Scan type : Progressive
Bits/(Pixel*Frame) : 0.283
Stream size : 1.17 GiB (94%)
Writing library : XviD 63
Audio #1
ID : 1
Format : MPEG Audio
Format version : Version 1
Format profile : Layer 3
Codec ID : 55
Codec ID/Hint : MP3
Duration : 1h 23mn
Bit rate mode : Constant
Bit rate : 128 Kbps
Channel(s) : 2 channels
Sampling rate : 48.0 KHz
Resolution : 16 bits
Stream size : 76.6 MiB (6%)
Alignment : Aligned on interleaves
Interleave, duration : 40 ms (1.00 video frame)
Interleave, preload duration : 504 ms

Скриншот c названием фильма

Скриншоты

Скачать

Скачать торрент!

Как скачивать? · Что такое торрент? · Рейтинг и ограничения

Сайт не распространяет и не хранит электронные версии произведений, а лишь предоставляет доступ к создаваемому пользователями каталогу ссылок на торрент-файлы, которые содержат только списки хеш-сумм

[Профиль] [ЛС]
Показать сообщения:    
Ответить на тему

Текущее время: Сегодня 05:59

Часовой пояс: GMT + 4



Вы не можете начинать темы
Вы не можете отвечать на сообщения
Вы не можете редактировать свои сообщения
Вы не можете удалять свои сообщения
Вы не можете голосовать в опросах
Вы не можете прикреплять файлы к сообщениям
Вы не можете скачивать файлы