Вход в никуда / Enter Nowhere (Джек Хеллер / Jack Heller) [2011, США, ужасы, триллер, детектив, DVDRip] VO

Ответить на тему
 
Автор Сообщение

user ®

Стаж: 7 лет 7 месяцев

Сообщений: 20008

Пост Пост: #1 от 19-Июн-2012 08:48

[Цитировать]

Вход в никуда / Enter Nowhere


Страна: США
Жанр: Ужасы, триллер, детектив
Год выпуска: 2011
Продолжительность: 01:29:27
Перевод: Одноголосый (закадровый)
Cубтитры: Нет
Режиссер: Джек Хеллер / Jack Heller
В ролях: Сара Пэкстон, Скотт Иствуд, Шон Сайпос, Кристофер Денхам, Кэтерин Уотерстон, Лей Лезарк, Джесси Перез
Описание: В центре сюжета фильма несколько героев, оказавшихся волей случая в безлюдном сверхъестественном лесу. Здесь судьбы людей переплетаются жестоким образом. Зайдя друг за другом в пустующую сторожку наши герои совершают большую ошибку. С этого момента их начинают преследовать некто или нечто...
Сэмпл: http://multi-up.com/698721
Качество видео: DVDRip
Формат видео: AVI
Видео: 640x272 (2.35:1), 23.976 fps, DivX Codec 5.x or 6.x ~948 kbps avg, 0.23 bit/pixel
Аудио: 48 kHz, MPEG Layer 3, 2 ch, ~128.00 kbps avg

Скриншоты

MI

General
Complete name : C:\Documents and Settings\Admin\Мои документы\Downloads\Enter.Nowhere.2011.L1.DVDRip.700Mb.avi
Format : AVI
Format/Info : Audio Video Interleave
File size : 698 MiB
Duration : 1h 29mn
Overall bit rate : 1 090 Kbps
Writing application : Lavf50.6.0
Video
ID : 0
Format : MPEG-4 Visual
Format profile : Simple@L1
Format settings, BVOP : No
Format settings, QPel : No
Format settings, GMC : No warppoints
Format settings, Matrix : Default (H.263)
Codec ID : DX50
Codec ID/Hint : DivX 5
Duration : 1h 29mn
Bit rate : 950 Kbps
Width : 640 pixels
Height : 272 pixels
Display aspect ratio : 2.35:1
Frame rate : 23.976 fps
Resolution : 8 bits
Colorimetry : 4:2:0
Scan type : Progressive
Bits/(Pixel*Frame) : 0.228
Stream size : 608 MiB (87%)
Writing library : Lavc51.20.0
Audio
ID : 1
Format : MPEG Audio
Format version : Version 1
Format profile : Layer 3
Mode : Joint stereo
Format_Settings_ModeExtension : MS Stereo
Codec ID : 55
Codec ID/Hint : MP3
Duration : 1h 29mn
Bit rate mode : Constant
Bit rate : 128 Kbps
Channel(s) : 2 channels
Sampling rate : 48.0 KHz
Stream size : 81.9 MiB (12%)
Alignment : Aligned on interleaves
Interleave, duration : 24 ms (0.58 video frame)
Interleave, preload duration : 24 ms
Writing library : LAME3.98 (alpha)
Скачать

Скачать торрент!

Как скачивать? · Что такое торрент? · Рейтинг и ограничения

Сайт не распространяет и не хранит электронные версии произведений, а лишь предоставляет доступ к создаваемому пользователями каталогу ссылок на торрент-файлы, которые содержат только списки хеш-сумм

[Профиль] [ЛС]
Показать сообщения:    
Ответить на тему

Текущее время: Сегодня 06:25

Часовой пояс: GMT + 4



Вы не можете начинать темы
Вы не можете отвечать на сообщения
Вы не можете редактировать свои сообщения
Вы не можете удалять свои сообщения
Вы не можете голосовать в опросах
Вы не можете прикреплять файлы к сообщениям
Вы не можете скачивать файлы