Шпион, выйди вон! / Tinker Tailor Soldier Spy (Томас Альфредсон / Tomas Alfredson) [2011, Германия, Франция, Великобритания, триллер, детектив, BDRip-AVC] Dub + AVO (C. Визгунов) + Sub (rus, ukr, eng) + Original (eng)

Ответить на тему
 
Автор Сообщение

user ®

Стаж: 7 лет 7 месяцев

Сообщений: 20008

Пост Пост: #1 от 19-Июн-2012 08:48

[Цитировать]

Шпион, выйди вон! / Tinker Tailor Soldier Spy
«Секретная информация будет раскрыта»
Страна: Германия, Франция, Великобритания
Жанр: триллер, детектив
Год выпуска: 2011
Продолжительность: 02:07:23
Перевод 1: Профессиональный (дублированный) [лицензия]
Перевод 2: Авторский (одноголосый закадровый) [Сергей Визгунов]
Cубтитры: русские, украинские, английские
Оригинальная аудиодорожка: английский
Режиссер: Томас Альфредсон / Tomas Alfredson
В ролях: Гари Олдман / Gary Oldman, Колин Фёрт / Colin Firth, Том Харди / Tom Hardy, Джон Хёрт / John Hurt, Тоби Джонс / Toby Jones, Марк Стронг / Mark Strong, Бенедикт Камбербэтч / Benedict Cumberbatch, Кьяран Хайндс / Ciaran Hinds, Константин Хабенский, Светлана Ходченкова, Золтан Мучи / Zoltan Mucsi, Петер Каллой Мольнар / Peter Kalloy Molnar
Описание: Многие сотрудники британской разведки догадывались, что в ее руководстве давно засел «крот», работающий на Россию. Но те, кто отваживался об этом заявлять открыто, почему-то оказывались в отставке. Остальные предпочитали помалкивать. Но подтверждение существования русского агента пришло с совсем неожиданной стороны. Начинается тайное расследование, возглавляемое находящимся в отставке Джорджем Смайли. И никто, включая высшее руководство разведки, не должен догадаться, что на крота снова объявлена охота.

Сэмпл: скачать (55MB)
Качество видео: BDRip-AVC
Формат видео: MKV
Видео: x264, 1056x448 (2.35:1), 23.976 fps, 2132 kbps
Аудио 1: (дубляж) AC-3, 48.0kHz, 384kbps, 5.1 ch
Аудио 2: (авторский) AC-3, 48.0kHz, 384kbps, 5.1 ch
Аудио 3: (оригинал) AC-3, 48.0kHz, 384kbps, 5.1 ch
Формат субтитров: softsub (SRT)

MediaInfo + x264 log

General
Unique ID                                : 296405658521018763434664689661698724160 (0xDEFDA7417F0FD9064607F71E0BD55140)
Complete name                            : /home/kem/Video/Tinker.Tailor.Soldier.Spy.2011.BDRip.x264.Dub.AVO.Eng.sub.mkv
Format                                   : Matroska
Format version                           : Version 2
File size                                : 2.92 GiB
Duration                                 : 2h 7mn
Overall bit rate                         : 3 285 Kbps
Encoded date                             : UTC 2012-06-18 01:59:59
Writing application                      : mkvmerge v5.6.0 ('Kenya Kane') built on May 31 2012 22:06:17
Writing library                          : libebml v1.2.2 + libmatroska v1.3.0
Video
ID                                       : 1
Format                                   : AVC
Format/Info                              : Advanced Video Codec
Format profile                           : High@L4.1
Format settings, CABAC                   : Yes
Format settings, ReFrames                : 14 frames
Codec ID                                 : V_MPEG4/ISO/AVC
Duration                                 : 2h 7mn
Bit rate                                 : 2 132 Kbps
Width                                    : 1 056 pixels
Height                                   : 448 pixels
Display aspect ratio                     : 2.35:1
Frame rate                               : 23.976 fps
Color space                              : YUV
Chroma subsampling                       : 4:2:0
Bit depth                                : 8 bits
Scan type                                : Progressive
Bits/(Pixel*Frame)                       : 0.188
Stream size                              : 1.84 GiB (63%)
Writing library                          : x264 core 122
Encoding settings                        : cabac=1 / ref=14 / deblock=1:-3:-3 / analyse=0x3:0x133 / me=umh / subme=11 / psy=1 / psy_rd=1.00:0.00 / mixed_ref=1 / me_range=32 / chroma_me=1 / trellis=2 / 8x8dct=1 / cqm=0 / deadzone=21,11 / fast_pskip=0 / chroma_qp_offset=-4 / threads=6 / sliced_threads=0 / nr=0 / decimate=1 / interlaced=0 / bluray_compat=0 / constrained_intra=0 / bframes=12 / b_pyramid=2 / b_adapt=2 / b_bias=0 / direct=3 / weightb=1 / open_gop=0 / weightp=2 / keyint=250 / keyint_min=23 / scenecut=40 / intra_refresh=0 / rc_lookahead=60 / rc=2pass / mbtree=1 / bitrate=2132 / ratetol=1.0 / qcomp=0.70 / qpmin=0 / qpmax=69 / qpstep=4 / cplxblur=20.0 / qblur=0.5 / ip_ratio=1.40 / aq=1:1.00
Default                                  : Yes
Forced                                   : No
Audio #1
ID                                       : 2
Format                                   : AC-3
Format/Info                              : Audio Coding 3
Mode extension                           : CM (complete main)
Format settings, Endianness              : Big
Codec ID                                 : A_AC3
Duration                                 : 2h 7mn
Bit rate mode                            : Constant
Bit rate                                 : 384 Kbps
Channel(s)                               : 6 channels
Channel positions                        : Front: L C R, Side: L R, LFE
Sampling rate                            : 48.0 KHz
Bit depth                                : 16 bits
Compression mode                         : Lossy
Stream size                              : 350 MiB (12%)
Title                                    : Dub
Language                                 : Russian
Default                                  : Yes
Forced                                   : No
Audio #2
ID                                       : 3
Format                                   : AC-3
Format/Info                              : Audio Coding 3
Mode extension                           : CM (complete main)
Format settings, Endianness              : Big
Codec ID                                 : A_AC3
Duration                                 : 2h 7mn
Bit rate mode                            : Constant
Bit rate                                 : 384 Kbps
Channel(s)                               : 6 channels
Channel positions                        : Front: L C R, Side: L R, LFE
Sampling rate                            : 48.0 KHz
Bit depth                                : 16 bits
Compression mode                         : Lossy
Stream size                              : 350 MiB (12%)
Title                                    : AVO
Language                                 : Russian
Default                                  : No
Forced                                   : No
Audio #3
ID                                       : 4
Format                                   : AC-3
Format/Info                              : Audio Coding 3
Mode extension                           : CM (complete main)
Format settings, Endianness              : Big
Codec ID                                 : A_AC3
Duration                                 : 2h 7mn
Bit rate mode                            : Constant
Bit rate                                 : 384 Kbps
Channel(s)                               : 6 channels
Channel positions                        : Front: L C R, Side: L R, LFE
Sampling rate                            : 48.0 KHz
Bit depth                                : 16 bits
Compression mode                         : Lossy
Stream size                              : 350 MiB (12%)
Title                                    : Original
Language                                 : English
Default                                  : No
Forced                                   : No
Text #1
ID                                       : 5
Format                                   : UTF-8
Codec ID                                 : S_TEXT/UTF8
Codec ID/Info                            : UTF-8 Plain Text
Title                                    : Rus Full
Language                                 : Russian
Default                                  : No
Forced                                   : No
Text #2
ID                                       : 6
Format                                   : UTF-8
Codec ID                                 : S_TEXT/UTF8
Codec ID/Info                            : UTF-8 Plain Text
Title                                    : Ukr Full
Language                                 : Ukrainian
Default                                  : No
Forced                                   : No
Text #3
ID                                       : 7
Format                                   : UTF-8
Codec ID                                 : S_TEXT/UTF8
Codec ID/Info                            : UTF-8 Plain Text
Title                                    : Eng Full
Language                                 : English
Default                                  : No
Forced                                   : No
Video stream: 2130.936 kbit/s  (266367 B/s)  size: 2035756872 bytes  7642.677 secs  183244 frames
x264 [info]: frame I:1086  Avg QP:17.38  size: 62239
x264 [info]: frame P:29137 Avg QP:20.66  size: 20088
x264 [info]: frame B:153018 Avg QP:22.08  size:  9037
x264 [info]: consecutive B-frames:  0.9%  0.5%  1.5%  7.9% 13.2% 25.8% 13.3%  9.1% 15.3%  7.4%  2.1%  1.5%  1.4%
x264 [info]: mb I  I16..4:  5.5% 83.4% 11.1%
x264 [info]: mb P  I16..4:  0.7%  3.8%  0.5%  P16..4: 31.4% 39.4% 14.0%  3.8%  0.2%    skip: 6.2%
x264 [info]: mb B  I16..4:  0.1%  0.3%  0.0%  B16..8: 42.2% 21.6%  4.4%  direct: 4.9%  skip:26.4%  L0:49.0% L1:46.6% BI: 4.4%
x264 [info]: 8x8 transform intra:77.3% inter:55.9%
x264 [info]: direct mvs  spatial:96.1% temporal:3.9%
x264 [info]: coded y,uvDC,uvAC intra: 85.9% 63.5% 33.6% inter: 32.2% 12.9% 0.2%
x264 [info]: i16 v,h,dc,p:  8% 79%  1% 13%
x264 [info]: i8 v,h,dc,ddl,ddr,vr,hd,vl,hu:  8%  7%  6% 11% 16% 15% 14% 12% 12%
x264 [info]: i4 v,h,dc,ddl,ddr,vr,hd,vl,hu: 11% 14%  3%  9% 14% 14% 13% 11% 12%
x264 [info]: i8c dc,h,v,p: 39% 29% 19% 13%
x264 [info]: Weighted P-Frames: Y:2.9% UV:0.5%
x264 [info]: ref P L0: 37.2%  9.5% 18.9%  7.5%  6.5%  4.6%  4.3%  2.2%  2.1%  1.6%  1.6%  1.3%  1.3%  1.2%  0.1%  0.0%
x264 [info]: ref B L0: 57.3% 14.9%  8.9%  4.6%  3.6%  2.9%  2.4%  1.4%  1.2%  1.1%  0.9%  0.5%  0.2%
x264 [info]: ref B L1: 87.3% 12.7%
x264 [info]: kb/s:2130.94

Скриншот c названием фильма

Скриншоты


Скачать

Скачать торрент!

Как скачивать? · Что такое торрент? · Рейтинг и ограничения

Сайт не распространяет и не хранит электронные версии произведений, а лишь предоставляет доступ к создаваемому пользователями каталогу ссылок на торрент-файлы, которые содержат только списки хеш-сумм

[Профиль] [ЛС]
Показать сообщения:    
Ответить на тему

Текущее время: Сегодня 22:28

Часовой пояс: GMT + 4



Вы не можете начинать темы
Вы не можете отвечать на сообщения
Вы не можете редактировать свои сообщения
Вы не можете удалять свои сообщения
Вы не можете голосовать в опросах
Вы не можете прикреплять файлы к сообщениям
Вы не можете скачивать файлы