Свидетельство / Evidence (Хоуи Эскинс / Howie Askins) [2011, США, ужасы, DVDRip] VO Original Eng

Ответить на тему
 
Автор Сообщение

user ®

Стаж: 7 лет 7 месяцев

Сообщений: 20008

Пост Пост: #1 от 19-Июн-2012 08:48

[Цитировать]

Свидетельство / Evidence
Страна: США
Жанр: ужасы
Год выпуска: 2011
Продолжительность: 01:18:39
Перевод: Одноголосый закадровый
Cубтитры: нет
Режиссер: Хоуи Эскинс / Howie Askins
В ролях: Райан МакКой, Бретт Розенберг, Эбигейл Ричи, Эшли Брекен, Зак Фэйхи, Блейн Грэй, Кейт Льюис, Рисдон Робертс
Описание: Группа молодых людей отправляется в лес, где один из них, Райан, намерен снять документальный фильм об их поездке. Устроив небольшой лагерь посреди лесной чащи, скоро герои фильма делают открытие, которое положит конец безмятежному отдыху.
Поначалу их привлекают странный шум, который вскоре материализуется в некое существо, имеющее, как выясняется, далеко не мирные намерения в отношении компании друзей. Фильм, который они пытались снимать, в итоге станет единственным свидетельством того, что же произошло на самом деле…

Сэмпл: http://multi-up.com/720410
Качество видео: DVDRip
Формат видео: AVI
Видео: XviD, 720x400, 2 032 Kbps, 23.976 fps
Аудио: AC3, (6 channels), 448 Kbps, 48.0 KHz

MediaInfo

E:\Torrent\Свидетельство.DVDRip.avi
General
Complete name : E:\Torrent\Свидетельство.DVDRip.avi
Format : AVI
Format/Info : Audio Video Interleave
File size : 1.37 GiB
Duration : 1h 18mn
Overall bit rate : 2 489 Kbps
Writing application : VirtualDubMod 1.5.10.2 (build 2540/release)
Writing library : VirtualDubMod build 2540/release
Video #0
ID : 0
Format : MPEG-4 Visual
Format profile : Advanced Simple@L5
Format settings, BVOP : 2
Format settings, QPel : No
Format settings, GMC : No warppoints
Format settings, Matrix : Custom
Codec ID : XVID
Codec ID/Hint : XviD
Duration : 1h 18mn
Bit rate : 2 032 Kbps
Width : 720 pixels
Height : 400 pixels
Display aspect ratio : 16:9
Frame rate : 23.976 fps
Color space : YUV
Chroma subsampling : 4:2:0
Bit depth : 8 bits
Scan type : Progressive
Compression mode : Lossy
Bits/(Pixel*Frame) : 0.294
Stream size : 1.12 GiB (82%)
Writing library : XviD 1.2.1 (UTC 2008-12-04)
Audio #1
ID : 1
Format : AC-3
Format/Info : Audio Coding 3
Mode extension : CM (complete main)
Codec ID : 2000
Duration : 1h 18mn
Bit rate mode : Constant
Bit rate : 448 Kbps
Channel(s) : 6 channels
Channel positions : Front: L C R, Side: L R, LFE
Sampling rate : 48.0 KHz
Bit depth : 16 bits
Compression mode : Lossy
Stream size : 252 MiB (18%)
Alignment : Split accross interleaves
Interleave, duration : 42 ms (1.00 video frame)
Interleave, preload duration : 500 ms

Скриншот c названием фильма

Скриншоты

Скачать

Скачать торрент!

Как скачивать? · Что такое торрент? · Рейтинг и ограничения

Сайт не распространяет и не хранит электронные версии произведений, а лишь предоставляет доступ к создаваемому пользователями каталогу ссылок на торрент-файлы, которые содержат только списки хеш-сумм

[Профиль] [ЛС]
Показать сообщения:    
Ответить на тему

Текущее время: Сегодня 12:26

Часовой пояс: GMT + 4



Вы не можете начинать темы
Вы не можете отвечать на сообщения
Вы не можете редактировать свои сообщения
Вы не можете удалять свои сообщения
Вы не можете голосовать в опросах
Вы не можете прикреплять файлы к сообщениям
Вы не можете скачивать файлы