Свидетельство / Evidence (Хоуи Эскинс / Howie Askins) [2011, США, Ужасы, DVDRip] VO WOLRONE + Original Eng + Rus subs

Ответить на тему
 
Автор Сообщение

user ®

Стаж: 7 лет 7 месяцев

Сообщений: 20008

Пост Пост: #1 от 19-Июн-2012 08:48

[Цитировать]

Свидетельство / Evidence
Страна: США
Жанр: Ужасы
Год выпуска: 2011
Продолжительность: 01:18:40
Перевод: перевод requiem, озвучание одноголосое WOLRONE
Оригинальная аудиодорожка: английский
Субтитры: внешние, отдельным файлом
Режиссер: Хоуи Эскинс
В ролях: Райан МакКой, Бретт Джей Розенберг, Эбигейл Ричи, Эшли Брэкен, Зак Фэйхи, Блейн Грэй, Кейт Льюис, Рисдон Робертс
Описание: Группа молодых людей отправляется в лес, где один из них, Райан, намерен снять документальный фильм об их поездке. Устроив небольшой лагерь посреди лесной чащи, скоро герои фильма делают открытие, которое положит конец безмятежному отдыху.
Доп. информация: Дабы избежать гневных комментариев типа "пока смотрел, укачало и два раза вырвало" от людей со слабым вестибулярным аппаратом, прошу обратить внимание - фильм снят в стиле found footage (найденная пленка). В этом же стиле сняты фильмы: Ведьма из Блэр (Blair Witch Project), Монстро (Cloverfield), Паранормальное Явление 1,2,3 (Paranormal Activity), Репортаж 1,2 ([Rec]), Охотник на троллей (Trolljegeren), Хроника (Chronicle).
Внимание! Присутствует ненормативная лексика!
Сэмпл: http://multi-up.com/720593
Качество видео: DVDRip
Формат видео: AVI
Видео: XviD, 720x400, 2 032 Kbps, 23.976 fps
Аудио: MP3, 128 Кбит/сек, 48,1 КГц, 2 канала
Аудио 2: AC-3, 192 Кбит/сек, 44,1 КГц, 16 бит, 2 канала

MediaInfo

Формат : AVI
Формат/Информация : Audio Video Interleave
Размер файла : 1,30 Гбайт
Продолжительность : 1 ч. 18 м.
Режим общего битрейта : Переменный
Общий поток : 2366 Кбит/сек
Программа кодирования : VirtualDubMod 1.5.10.2 (build 2540/release)
Библиотека кодирования : VirtualDubMod build 2540/release
Видео
Идентификатор : 0
Формат : MPEG-4 Visual
Профиль формата : Advanced Simple@L5
Параметр BVOP формата : 2
Параметр QPel формата : Нет
Параметр GMC формата : Без точки перехода
Параметр матрицы формата : Выборочная
Идентификатор кодека : XVID
Идентификатор кодека/Подсказка : XviD
Продолжительность : 1 ч. 18 м.
Битрейт : 2032 Кбит/сек
Ширина : 720 пикселей
Высота : 400 пикселей
Соотношение сторон : 16:9
Частота кадров : 23,976 кадра/сек
Цветовое пространство : YUV
Субдискретизация насыщенности : 4:2:0
Битовая глубина : 8 бит
Тип развёртки : Прогрессивная
Метод сжатия : С потерями
Бит/(Пиксели*Кадры) : 0.294
Размер потока : 1,12 Гбайт (86%)
Библиотека кодирования : XviD 1.2.1 (UTC 2008-12-04)
Аудио #1
Идентификатор : 1
Формат : MPEG Audio
Версия формата : Version 1
Профиль формата : Layer 3
Режим : Joint stereo
Расширение режима : MS Stereo
Идентификатор кодека : 55
Идентификатор кодека/Подсказка : MP3
Продолжительность : 1 ч. 18 м.
Вид битрейта : Переменный
Битрейт : 128 Кбит/сек
Каналы : 2 канала
Частота : 48,0 КГц
Метод сжатия : С потерями
Размер потока : 72,0 Мбайт (5%)
Выравнивание : Разделение по промежуткам
Продолжительность промежутка : 42 мс. (1,00 видеокадр)
Время предзагрузки промежутка : 500 мс.
Библиотека кодирования : LAME3.98.3
Аудио #2
Идентификатор : 2
Формат : AC-3
Формат/Информация : Audio Coding 3
Расширение режима : CM (complete main)
Параметр Endianness формата : Big
Идентификатор кодека : 2000
Продолжительность : 1 ч. 18 м.
Вид битрейта : Постоянный
Битрейт : 192 Кбит/сек
Каналы : 2 канала
Расположение каналов : Front: L R
Частота : 44,1 КГц
Битовая глубина : 16 бит
Метод сжатия : С потерями
Размер потока : 108 Мбайт (8%)
Выравнивание : Разделение по промежуткам
Продолжительность промежутка : 42 мс. (1,00 видеокадр)
Время предзагрузки промежутка : 500 мс.
Заголовок : Original (English)

Скриншот с названием фильма

Скриншоты

Скачать

Скачать торрент!

Как скачивать? · Что такое торрент? · Рейтинг и ограничения

Сайт не распространяет и не хранит электронные версии произведений, а лишь предоставляет доступ к создаваемому пользователями каталогу ссылок на торрент-файлы, которые содержат только списки хеш-сумм

[Профиль] [ЛС]
Показать сообщения:    
Ответить на тему

Текущее время: Сегодня 18:10

Часовой пояс: GMT + 4



Вы не можете начинать темы
Вы не можете отвечать на сообщения
Вы не можете редактировать свои сообщения
Вы не можете удалять свои сообщения
Вы не можете голосовать в опросах
Вы не можете прикреплять файлы к сообщениям
Вы не можете скачивать файлы