Потомки / The Descendants (Александр Пэйн / Alexander Payne) [2011 г., драма, BDRip-AVC] Dub

Ответить на тему
 
Автор Сообщение

user ®

Стаж: 7 лет 7 месяцев

Сообщений: 20008

Пост Пост: #1 от 19-Июн-2012 08:48

[Цитировать]

ПотомкиThe Descendants Год выпуска: 2011
Страна: США
Жанр: драма
Продолжительность: 01:55:01
Перевод: профессиональный полное дублирование BD CEE
Субтитры: русские (форсированные), русские (BD CEE), русские (voronine), английские softsub (SRT)-Режиссер: Александр Пэйн / Alexander Payne-В ролях:
Джордж Клуни, Бо Бриджес, Шейлин Вудли, Джуди Грир, Роберт Форстер, Мэттью Лиллард, Амара Миллер, Ник Краузе, Патти Хасти, Грэйс А. Круз, Ким Дженнаула, Карен Куиока Хиронага, Кауи Харт Хеммингз, Мэтт Корбой, Майкл Онткин, Стэнтон Джонстон, Джон МакМанус, Хью Фостер, Том Мактик, Милт Коган, Мэри Бердсонг, Роб Хюбел, Лэйрд Джон Хэмилтон, Барбара Л. Саузерн, Селия Кенни, Мэттью Риз-Описание:
Главный герой — богатый гавайский землевладелец. Он вместе с двумя дочерьми предпринимает попытку найти любовника жены, лежащей в коме, искренне веря, что таким образом спасет семейный очаг.-
  • Фильм основан на одноимённой дебютной книге гавайской писательницы Кауи Харт Хеммингз, которая впервые была опубликована в мае 2007 года.
  • Использованный при съёмках фильма дом семейства Кинг имел один большой недостаток – возле него не было описываемого в книге дерева баньяна. Эту проблему решили с помощью транспортировки и пересадки выкопанного с землей взрослого дерева.
  • Автор книги Кауи Харт Хеммингз появляется в камео в качестве секретаря героя Джорджа Клуни.
  • На роль младшей дочери десятилетней Скотти пробовалось свыше трехсот девочек.
  • На роль старшей дочери пробовалась Аманда Сэйфрид.
  • В книге младшая дочь Скотти в один из моментов появлялась в футболке с надписью миссис Клуни. Так получилось, что в фильме Джордж Клуни играет её отца.-Награды:
    Оскар, 2012 год
    Победитель: Лучший адаптированный сценарий
    Номинации: Лучший фильм, Лучшая мужская роль (Джордж Клуни), Лучший режиссер (Александр Пэйн), Лучший монтаж
    Британская академия, 2012 год
    Номинации: Лучший фильм, Лучшая мужская роль (Джордж Клуни), Лучший адаптированный сценарий
    Золотой глобус, 2012 год
    Победитель: Лучший фильм (драма), Лучшая мужская роль (драма) (Джордж Клуни)
    Номинации: Лучшая женская роль второго плана (Шейлин Вудли), Лучший режиссер (Александр Пэйн), Лучший сценарий--IMDB: 7.5/10 (80,655 votes)
    Кинопоиск: 7.168 (8478)--Сэмпл--Качество:BDRip-AVC
    Формат: MKV
    Видео кодек: H.264
    Аудио кодек: AC3
    Видео: 1012 x 420 (2.40 :1), 23.976 fps, 1423 Кбит/сек, 0.14 bit/pixel
    Аудио: 48 kHz, AC3, 3/2 (L,C,R,l,r) + LFE ch, ~384.00 kbps avg

Скриншоты




MediaInfo | x264

x264

x264 [info]: frame I:1068 Avg QP:17.86 size: 78049
x264 [info]: frame P:32838 Avg QP:21.03 size: 17737
x264 [info]: frame B:131549 Avg QP:24.22 size: 4269
x264 [info]: consecutive B-frames: 1.6% 3.9% 2.6% 11.4% 12.6% 52.8% 7.1% 2.2% 2.6% 1.8% 1.4%
x264 [info]: mb I I16..4: 6.0% 68.7% 25.4%
x264 [info]: mb P I16..4: 0.3% 4.0% 1.4% P16..4: 36.0% 36.2% 12.7% 0.0% 0.0% skip: 9.4%
x264 [info]: mb B I16..4: 0.0% 0.5% 0.2% B16..8: 37.1% 14.8% 2.0% direct: 2.5% skip:42.8% L0:44.3% L1:46.5% BI: 9.2%
x264 [info]: 8x8 transform intra:68.1% inter:62.8%
x264 [info]: direct mvs spatial:99.3% temporal:0.7%
x264 [info]: coded y,uvDC,uvAC intra: 86.6% 83.9% 57.5% inter: 16.1% 12.2% 2.2%
x264 [info]: i16 v,h,dc,p: 41% 19% 7% 33%
x264 [info]: i8 v,h,dc,ddl,ddr,vr,hd,vl,hu: 11% 11% 5% 9% 14% 13% 14% 11% 13%
x264 [info]: i4 v,h,dc,ddl,ddr,vr,hd,vl,hu: 30% 16% 4% 6% 9% 9% 10% 7% 9%
x264 [info]: i8c dc,h,v,p: 34% 28% 21% 18%
x264 [info]: Weighted P-Frames: Y:4.1% UV:1.7%
x264 [info]: ref P L0: 47.9% 12.1% 15.1% 6.7% 5.1% 4.0% 3.3% 1.9% 1.6% 1.3% 1.1%
x264 [info]: ref B L0: 70.7% 12.8% 6.5% 3.1% 2.3% 1.8% 1.4% 0.8% 0.4% 0.2%
x264 [info]: ref B L1: 92.0% 8.0%
General
Unique ID : 213942913277235081091604796426586768116 (0xA0F3E803BC6A9788BBF350314C4D42F4)
Complete name : D:\Potomki.2011.BDRip-AVC.mkv
Format : Matroska
Format version : Version 2
File size : 1.46 GiB
Duration : 1h 55mn
Overall bit rate mode : Variable
Overall bit rate : 1 812 Kbps
Encoded date : UTC 2012-06-08 22:45:57
Writing application : mkvmerge v5.0.1 ('Es ist Sommer') built on Oct 24 2011 19:45:06
Writing library : libebml v1.2.2 + libmatroska v1.3.0
Video
ID : 1
Format : AVC
Format/Info : Advanced Video Codec
Format profile : High@L4.1
Format settings, CABAC : Yes
Format settings, ReFrames : 11 frames
Codec ID : V_MPEG4/ISO/AVC
Duration : 1h 55mn
Bit rate mode : Variable
Bit rate : 1 423 Kbps
Maximum bit rate : 40.0 Mbps
Width : 1 012 pixels
Height : 420 pixels
Display aspect ratio : 2.40:1
Frame rate : 23.976 fps
Color space : YUV
Chroma subsampling : 4:2:0
Bit depth : 8 bits
Scan type : Progressive
Bits/(Pixel*Frame) : 0.140
Stream size : 1.12 GiB (77%)
Writing library : x264 core 120 r2164 da19765
Encoding settings : cabac=1 / ref=11 / deblock=1:-2:-1 / analyse=0x3:0x113 / me=umh / subme=11 / psy=1 / psy_rd=0.95:0.05 / mixed_ref=1 / me_range=32 / chroma_me=1 / trellis=2 / 8x8dct=1 / cqm=0 / deadzone=21,11 / fast_pskip=0 / chroma_qp_offset=-3 / threads=6 / sliced_threads=0 / nr=0 / decimate=1 / interlaced=0 / bluray_compat=0 / constrained_intra=0 / bframes=10 / b_pyramid=2 / b_adapt=2 / b_bias=0 / direct=3 / weightb=1 / open_gop=0 / weightp=2 / keyint=240 / keyint_min=24 / scenecut=40 / intra_refresh=0 / rc_lookahead=60 / rc=2pass / mbtree=1 / bitrate=1423 / ratetol=1.0 / qcomp=0.70 / qpmin=10 / qpmax=51 / qpstep=4 / cplxblur=20.0 / qblur=0.5 / ip_ratio=1.40 / aq=1:1.0
Audio
ID : 2
Format : AC-3
Format/Info : Audio Coding 3
Mode extension : CM (complete main)
Codec ID : A_AC3
Duration : 1h 55mn
Bit rate mode : Constant
Bit rate : 384 Kbps
Channel(s) : 6 channels
Channel positions : Front: L C R, Side: L R, LFE
Sampling rate : 48.0 KHz
Bit depth : 16 bits
Compression mode : Lossy
Stream size : 316 MiB (21%)
Title : Dub
Language : Russian
Text #1
ID : 3
Format : UTF-8
Codec ID : S_TEXT/UTF8
Codec ID/Info : UTF-8 Plain Text
Title : Forced
Language : Russian
Text #2
ID : 4
Format : UTF-8
Codec ID : S_TEXT/UTF8
Codec ID/Info : UTF-8 Plain Text
Title : BD CEE
Language : Russian
Text #3
ID : 5
Format : UTF-8
Codec ID : S_TEXT/UTF8
Codec ID/Info : UTF-8 Plain Text
Title : voronine
Language : Russian
Text #4
ID : 6
Format : UTF-8
Codec ID : S_TEXT/UTF8
Codec ID/Info : UTF-8 Plain Text
Language : English
Menu
00:00:00.000 : en:Chapter 1
00:03:18.990 : en:Chapter 2
00:06:58.668 : en:Chapter 3
00:09:09.173 : en:Chapter 4
00:10:27.877 : en:Chapter 5
00:14:22.861 : en:Chapter 6
00:18:03.373 : en:Chapter 7
00:22:42.444 : en:Chapter 8
00:26:00.517 : en:Chapter 9
00:29:37.859 : en:Chapter 10
00:34:20.975 : en:Chapter 11
00:36:06.205 : en:Chapter 12
00:40:00.147 : en:Chapter 13
00:44:42.679 : en:Chapter 14
00:47:07.741 : en:Chapter 15
00:49:18.413 : en:Chapter 16
00:51:45.769 : en:Chapter 17
00:53:39.132 : en:Chapter 18
01:00:01.097 : en:Chapter 19
01:07:46.645 : en:Chapter 20
01:12:47.195 : en:Chapter 21
01:18:39.631 : en:Chapter 22
01:22:30.319 : en:Chapter 23
01:25:40.301 : en:Chapter 24
01:26:38.609 : en:Chapter 25
01:28:32.681 : en:Chapter 26
01:31:41.829 : en:Chapter 27
01:34:30.372 : en:Chapter 28
01:38:17.349 : en:Chapter 29
01:43:14.938 : en:Chapter 30
01:45:42.627 : en:Chapter 31
01:48:03.643 : en:Chapter 32
Скачать

Скачать торрент!

Как скачивать? · Что такое торрент? · Рейтинг и ограничения

Сайт не распространяет и не хранит электронные версии произведений, а лишь предоставляет доступ к создаваемому пользователями каталогу ссылок на торрент-файлы, которые содержат только списки хеш-сумм

[Профиль] [ЛС]
Показать сообщения:    
Ответить на тему

Текущее время: Сегодня 13:41

Часовой пояс: GMT + 4



Вы не можете начинать темы
Вы не можете отвечать на сообщения
Вы не можете редактировать свои сообщения
Вы не можете удалять свои сообщения
Вы не можете голосовать в опросах
Вы не можете прикреплять файлы к сообщениям
Вы не можете скачивать файлы