Закон доблести / Act of Valor (Майк МакКой / Mike McCoy, Скотт Во / Scott Waugh) [2012, США, боевик, триллер, приключения, военный, BDRip-AVC] DUB (Blu-ray) + Original (eng) + Sub (rus)

Ответить на тему
 
Автор Сообщение

user ®

Стаж: 7 лет 7 месяцев

Сообщений: 20008

Пост Пост: #1 от 19-Июн-2012 08:48

[Цитировать]

Закон доблести / Act of Valor
«За что ты сражаешься?»
-- Страна: США
Жанр: боевик, триллер, приключения, военный
Год выпуска: 2012
Продолжительность: 01:49:29
Перевод: Профессиональный (полное дублирование)
Cубтитры: русский
Оригинальная аудиодорожка: английский-Режиссеры: Майк МакКой / Mike McCoy, Скотт Во / Scott Waugh-В ролях: Джейсон Коттл, Нестор Серрано, Айлса Маршалл, Гонсало Менендес, Эмилио Ривера, Димитар Маринов, Томас Розалес мл., Марк Маргулис, Дэн Сауфуорф, Андреа Кастро...-Описание: История о нелегких буднях элитной группы «морские котики», которым поручено вытащить из плена агентов ЦРУ. Выполняя задание, бойцы попутно уничтожают террористическую группу, в планы которой входила масштабная атака на США.- -
Бюджет: $12 000 000
Исходник: Blu-ray 1080p [RUS TRANSFER]
Тип релиза: BDRip-AVC
Контейнер: MKV
Видео: 1024x576 (16:9), 23.976 fps, H264 ~ 1960 kbps avg, 0.139 bit/pixel
Аудио 1: 48 kHz, AC3 6 ch, 448.00 kbps, русский
Аудио 2: 48 kHz, AC3 6 ch, 448.00 kbps, английский
Формат субтитров: SoftSub (srt)
Присутствуют оригинальные чаптеры c Blu-ray

MediaInfo

Общее
Полное имя : Zakon.doblesti.2012.D.BDRip.2.18GB_[Youtracker]_by_avproh.mkv
Формат : Matroska
Версия формата : Version 2
Размер файла : 2,19 Гбайт
Продолжительность : 1 ч. 49 м.
Общий поток : 2857 Кбит/сек
Дата кодирования : UTC 2012-06-15 10:54:10
Программа кодирования : mkvmerge v5.6.0 ('Kenya Kane') built on May 27 2012 16:44:04
Библиотека кодирования : libebml v1.2.3 + libmatroska v1.3.0
Видео
Идентификатор : 1
Формат : AVC
Формат/Информация : Advanced Video Codec
Профиль формата : High@L4.1
Параметр CABAC формата : Да
Параметр ReFrames формата : 11 кадров
Идентификатор кодека : V_MPEG4/ISO/AVC
Продолжительность : 1 ч. 49 м.
Битрейт : 1960 Кбит/сек
Ширина : 1024 пикселя
Высота : 576 пикселей
Соотношение сторон : 16:9
Частота кадров : 23,976 кадра/сек
Цветовое пространство : YUV
Субдискретизация насыщенности : 4:2:0
Битовая глубина : 8 бит
Тип развёртки : Прогрессивная
Бит/(Пиксели*Кадры) : 0.139
Размер потока : 1,46 Гбайт (67%)
Библиотека кодирования : x264 core 119 r2106 07efeb4
Настройки программы : cabac=1 / ref=11 / deblock=1:-2:-1 / analyse=0x3:0x113 / me=umh / subme=9 / psy=1 / psy_rd=1.00:0.10 / mixed_ref=1 / me_range=32 / chroma_me=1 / trellis=2 / 8x8dct=1 / cqm=0 / deadzone=21,11 / fast_pskip=1 / chroma_qp_offset=-3 / threads=6 / sliced_threads=0 / nr=0 / decimate=1 / interlaced=0 / bluray_compat=0 / constrained_intra=0 / bframes=10 / b_pyramid=2 / b_adapt=2 / b_bias=0 / direct=3 / weightb=1 / open_gop=0 / weightp=2 / keyint=240 / keyint_min=23 / scenecut=40 / intra_refresh=0 / rc_lookahead=80 / rc=2pass / mbtree=1 / bitrate=1960 / ratetol=1.0 / qcomp=0.60 / qpmin=0 / qpmax=69 / qpstep=4 / cplxblur=20.0 / qblur=0.5 / ip_ratio=1.40 / aq=2:0.90
Язык : English
Default : Да
Forced : Нет
Аудио #1
Идентификатор : 2
Формат : AC-3
Формат/Информация : Audio Coding 3
Расширение режима : CM (complete main)
Параметр Endianness формата : Big
Идентификатор кодека : A_AC3
Продолжительность : 1 ч. 49 м.
Вид битрейта : Постоянный
Битрейт : 448 Кбит/сек
Каналы : 6 каналов
Расположение каналов : Front: L C R, Side: L R, LFE
Частота : 48,0 КГц
Битовая глубина : 16 бит
Метод сжатия : С потерями
Размер потока : 351 Мбайт (16%)
Язык : Russian
Default : Да
Forced : Нет
Аудио #2
Идентификатор : 3
Формат : AC-3
Формат/Информация : Audio Coding 3
Расширение режима : CM (complete main)
Параметр Endianness формата : Big
Идентификатор кодека : A_AC3
Продолжительность : 1 ч. 49 м.
Вид битрейта : Постоянный
Битрейт : 448 Кбит/сек
Каналы : 6 каналов
Расположение каналов : Front: L C R, Side: L R, LFE
Частота : 48,0 КГц
Битовая глубина : 16 бит
Метод сжатия : С потерями
Размер потока : 351 Мбайт (16%)
Язык : English
Default : Нет
Forced : Нет
Текст
Идентификатор : 4
Формат : UTF-8
Идентификатор кодека : S_TEXT/UTF8
Идентификатор кодека/Информация : UTF-8 Plain Text
Язык : Russian
Default : Нет
Forced : Нет
Меню
00:00:00.000 : ru:1
00:04:09.165 : ru:2
00:07:58.895 : ru:3
00:13:09.997 : ru:4
00:16:47.006 : ru:5
00:22:23.258 : ru:6
00:26:31.631 : ru:7
00:30:12.143 : ru:8
00:35:33.756 : ru:9
00:41:14.305 : ru:10
00:46:31.622 : ru:11
00:50:43.999 : ru:12
00:55:18.815 : ru:13
01:00:06.603 : ru:14
01:07:15.573 : ru:15
01:14:25.002 : ru:16
01:21:47.277 : ru:17
01:31:53.132 : ru:18
01:49:28.770 : ru:19

Скриншоты

Раздача от группы:
Скачать

Скачать торрент!

Как скачивать? · Что такое торрент? · Рейтинг и ограничения

Сайт не распространяет и не хранит электронные версии произведений, а лишь предоставляет доступ к создаваемому пользователями каталогу ссылок на торрент-файлы, которые содержат только списки хеш-сумм

[Профиль] [ЛС]
Показать сообщения:    
Ответить на тему

Текущее время: Сегодня 03:14

Часовой пояс: GMT + 4



Вы не можете начинать темы
Вы не можете отвечать на сообщения
Вы не можете редактировать свои сообщения
Вы не можете удалять свои сообщения
Вы не можете голосовать в опросах
Вы не можете прикреплять файлы к сообщениям
Вы не можете скачивать файлы