Красные хвосты / Red Tails (Энтони Хемингуэй / Anthony Hemingway) [2012, США, боевик, драма, приключения, военный, история, HDRip-AVC] VO + Sub (eng) + Original (eng)

Ответить на тему
 
Автор Сообщение

user ®

Стаж: 8 лет 4 месяца

Сообщений: 20008

Пост Пост: #1 от 19-Июн-2012 08:48

[Цитировать]

Красные xвосты / Red Tails
«High-Octane Action and Daring Dogfights»
Страна: США
Жанр: боевик, драма, приключения, военный, история
Год выпуска: 2012
Продолжительность: 02:05:00
Перевод: Одноголосый закадровый
Cубтитры: английские
Оригинальная аудиодорожка: английский
Режиссер: Энтони Хемингуэй / Anthony Hemingway
В ролях: Кьюба Гудинг мл., Терренс Ховард, Нэйт Паркер, Тристан Уайлдс, Элайджа Келли, Лесли Одом мл., Кевин Филлипс, Метод Мэн, Ли Тергесен, Даниэла Руа, Мэттью Марш
Описание: История молодого чернокожего пилота, который превозмогая расизм и неприязнь, сумел сплотить братьев по крови и создал первый в истории воздушный батальон, состоящий исключительно из афроамериканцев.

Семпл: скачать (26MB)
Качество видео: HDRip-AVC (исходник: BDRip / 1080p / 23.976 fps / 8496 kbps)
Формат видео: MKV
Видео: x264, 1152x480 (2.40:1), 23.976 fps, 1727 kbps
Аудио 1: (русский) AC-3, 48.0kHz, 384 kbps, 5.1 ch
Аудио 2: (английский) AC-3, 48.0kHz, 384 kbps, 5.1 ch
Формат субтитров: softsub (SRT)

MediaInfo + x264 log

General
Unique ID                                : 8861572145573550969331467188895215232 (0x6AAAD3D30E660ABC86193B19B0FEE80)
Complete name                            : /home/kem/Video/Red.Tails.2012.HDRip.x264.VO.Eng.mkv
Format                                   : Matroska
Format version                           : Version 2
File size                                : 2.18 GiB
Duration                                 : 2h 5mn
Overall bit rate                         : 2 496 Kbps
Encoded date                             : UTC 2012-06-19 01:21:06
Writing application                      : mkvmerge v5.6.0 ('Kenya Kane') built on May 31 2012 22:06:17
Writing library                          : libebml v1.2.2 + libmatroska v1.3.0
Video
ID                                       : 1
Format                                   : AVC
Format/Info                              : Advanced Video Codec
Format profile                           : High@L4.1
Format settings, CABAC                   : Yes
Format settings, ReFrames                : 12 frames
Codec ID                                 : V_MPEG4/ISO/AVC
Duration                                 : 2h 5mn
Bit rate                                 : 1 727 Kbps
Width                                    : 1 152 pixels
Height                                   : 480 pixels
Display aspect ratio                     : 2.40:1
Frame rate                               : 23.976 fps
Color space                              : YUV
Chroma subsampling                       : 4:2:0
Bit depth                                : 8 bits
Scan type                                : Progressive
Bits/(Pixel*Frame)                       : 0.130
Stream size                              : 1.47 GiB (67%)
Writing library                          : x264 core 122
Encoding settings                        : cabac=1 / ref=12 / deblock=1:-3:-3 / analyse=0x3:0x133 / me=umh / subme=11 / psy=1 / psy_rd=1.00:0.00 / mixed_ref=1 / me_range=32 / chroma_me=1 / trellis=2 / 8x8dct=1 / cqm=0 / deadzone=21,11 / fast_pskip=0 / chroma_qp_offset=-4 / threads=6 / sliced_threads=0 / nr=0 / decimate=1 / interlaced=0 / bluray_compat=0 / constrained_intra=0 / bframes=6 / b_pyramid=2 / b_adapt=2 / b_bias=0 / direct=3 / weightb=1 / open_gop=0 / weightp=2 / keyint=250 / keyint_min=23 / scenecut=40 / intra_refresh=0 / rc_lookahead=60 / rc=2pass / mbtree=1 / bitrate=1727 / ratetol=1.0 / qcomp=0.70 / qpmin=0 / qpmax=69 / qpstep=4 / cplxblur=20.0 / qblur=0.5 / ip_ratio=1.40 / aq=1:1.00
Default                                  : Yes
Forced                                   : No
Audio #1
ID                                       : 2
Format                                   : AC-3
Format/Info                              : Audio Coding 3
Mode extension                           : CM (complete main)
Format settings, Endianness              : Big
Codec ID                                 : A_AC3
Duration                                 : 2h 5mn
Bit rate mode                            : Constant
Bit rate                                 : 384 Kbps
Channel(s)                               : 6 channels
Channel positions                        : Front: L C R, Side: L R, LFE
Sampling rate                            : 48.0 KHz
Bit depth                                : 16 bits
Compression mode                         : Lossy
Stream size                              : 343 MiB (15%)
Title                                    : VO
Language                                 : Russian
Default                                  : Yes
Forced                                   : No
Audio #2
ID                                       : 3
Format                                   : AC-3
Format/Info                              : Audio Coding 3
Mode extension                           : CM (complete main)
Format settings, Endianness              : Big
Codec ID                                 : A_AC3
Duration                                 : 2h 5mn
Bit rate mode                            : Constant
Bit rate                                 : 384 Kbps
Channel(s)                               : 6 channels
Channel positions                        : Front: L C R, Side: L R, LFE
Sampling rate                            : 48.0 KHz
Bit depth                                : 16 bits
Compression mode                         : Lossy
Stream size                              : 343 MiB (15%)
Title                                    : Original
Language                                 : English
Default                                  : No
Forced                                   : No
Text
ID                                       : 4
Format                                   : UTF-8
Codec ID                                 : S_TEXT/UTF8
Codec ID/Info                            : UTF-8 Plain Text
Language                                 : English
Default                                  : Yes
Forced                                   : No
Video stream: 1725.943 kbit/s  (215742 B/s)  size: 1618195492 bytes  7500.577 secs  179837 frames
x264 [info]: frame I:1564  Avg QP:15.45  size: 65898
x264 [info]: frame P:44420 Avg QP:18.68  size: 17611
x264 [info]: frame B:133850 Avg QP:21.62  size:  5475
x264 [info]: consecutive B-frames:  2.9%  3.4%  8.9% 40.2% 17.5% 22.5%  4.5%
x264 [info]: mb I  I16..4:  6.6% 74.5% 18.8%
x264 [info]: mb P  I16..4:  1.3%  9.1%  1.0%  P16..4: 34.7% 35.2%  8.9%  2.5%  0.2%    skip: 6.9%
x264 [info]: mb B  I16..4:  0.2%  1.3%  0.1%  B16..8: 34.4% 16.9%  2.1%  direct: 4.1%  skip:41.0%  L0:42.4% L1:46.1% BI:11.5%
x264 [info]: 8x8 transform intra:79.2% inter:63.8%
x264 [info]: direct mvs  spatial:97.0% temporal:3.0%
x264 [info]: coded y,uvDC,uvAC intra: 81.2% 75.6% 44.3% inter: 15.9% 13.9% 1.9%
x264 [info]: i16 v,h,dc,p: 11% 12%  3% 74%
x264 [info]: i8 v,h,dc,ddl,ddr,vr,hd,vl,hu:  6%  9%  3%  9% 14% 13% 16% 12% 17%
x264 [info]: i4 v,h,dc,ddl,ddr,vr,hd,vl,hu:  7% 10%  4%  8% 16% 15% 16% 10% 14%
x264 [info]: i8c dc,h,v,p: 39% 29% 17% 15%
x264 [info]: Weighted P-Frames: Y:3.6% UV:1.6%
x264 [info]: ref P L0: 49.0%  9.3% 16.5%  6.5%  5.0%  3.6%  3.0%  1.7%  1.5%  1.3%  1.2%  1.2%  0.2%  0.0%
x264 [info]: ref B L0: 76.3% 10.3%  4.8%  2.4%  2.1%  1.3%  1.0%  0.6%  0.5%  0.3%  0.2%
x264 [info]: ref B L1: 93.5%  6.5%
x264 [info]: kb/s:1725.94

Скриншот c названием фильма

Скриншоты


Скачать

Скачать торрент!

Как скачивать? · Что такое торрент? · Рейтинг и ограничения

Сайт не распространяет и не хранит электронные версии произведений, а лишь предоставляет доступ к создаваемому пользователями каталогу ссылок на торрент-файлы, которые содержат только списки хеш-сумм

[Профиль] [ЛС]
Показать сообщения:    
Ответить на тему

Текущее время: Сегодня 21:27

Часовой пояс: GMT + 4



Вы не можете начинать темы
Вы не можете отвечать на сообщения
Вы не можете редактировать свои сообщения
Вы не можете удалять свои сообщения
Вы не можете голосовать в опросах
Вы не можете прикреплять файлы к сообщениям
Вы не можете скачивать файлы