Бунтарка / Radio Rebel (Питер Хауит / Peter Hauit) [2012, США, драма, HDTVRip] Dub (Disney Channel) + Original Eng

Ответить на тему
 
Автор Сообщение

user ®

Стаж: 7 лет 7 месяцев

Сообщений: 20008

Пост Пост: #1 от 19-Июн-2012 08:48

[Цитировать]

Бунтарка / Radio Rebel-- Страна: США
Жанр: драма
Год выпуска: 2012
Продолжительность: 01:29:31--Перевод: Профессиональный (дублированный) Disney Channel
Cубтитры: нет
Оригинальная аудиодорожка: English--Режиссер: Питер Хауит / Peter Hauit--В ролях: Дебби Райан, Адам ДиМарко, Мерритт Паттерсон, Элли Бертрам, Айэйн Белчер, Роуэн Кан Аттикус, Дин Митчел, Мерседес Де Ла Зерда, Андреа Брукс--Описание: Старшекласснице Таре приходится многое преодолеть, чтобы побороть застенчивость и заявить о себе во весь голос. На первый взгляд, она настоящая «серая мышка». Но в домашней радиостудии скромница, которая панически боится выступления у доски, превращается в звезду эфира. Стоит закрыться в своей комнате и надеть наушники, и она уже не тихоня, а возмутительница спокойствия — Бунтарка! Не стесняясь в выражениях, девушка высказывает все, что думает о своих обидчиках. Ее радиошоу интригует весь город: в незнакомку влюбляются и одноклассники, и парень ее мечты. Но лишь один человек — отчим Тары, продюсер радиостанции штата — знает ее секрет...--Сэмпл: http://multi-up.com/719870--Качество видео: HDTVRip
Формат видео: AVI
Видео: 1 597 kbps, 720*400, 16:9, 23.976 fps, XviD
Аудио 1: Rus, 192, 48.0 khz, 16 bits, 2 ch, ac3
Аудио 2: English, 384 kbps, 48.0 khz, 16 bits, 6 ch, ac3--

MediaInfo

General
Complete name : D:\Фильмы\Radio Rebel.avi
Format : AVI
Format/Info : Audio Video Interleave
File size : 1.37 GiB
Duration : 1h 29mn
Overall bit rate : 2 187 Kbps
Writing application : VirtualDubModRus 1.5.10.1 (build 2439/release)
Writing library : VirtualDubMod build 2439/release
Video
ID : 0
Format : MPEG-4 Visual
Format profile : Advanced Simple@L5
Format settings, BVOP : 2
Format settings, QPel : No
Format settings, GMC : No warppoints
Format settings, Matrix : Default (H.263)
Codec ID : XVID
Codec ID/Hint : XviD
Duration : 1h 29mn
Bit rate : 1 597 Kbps
Width : 720 pixels
Height : 400 pixels
Display aspect ratio : 16:9
Frame rate : 23.976 fps
Color space : YUV
Chroma subsampling : 4:2:0
Bit depth : 8 bits
Scan type : Progressive
Compression mode : Lossy
Bits/(Pixel*Frame) : 0.231
Stream size : 1 022 MiB (73%)
Writing library : XviD 1.2.1 (UTC 2008-12-04)
Audio #1
ID : 1
Format : AC-3
Format/Info : Audio Coding 3
Mode extension : CM (complete main)
Format settings, Endianness : Big
Codec ID : 2000
Duration : 1h 29mn
Bit rate mode : Constant
Bit rate : 192 Kbps
Channel(s) : 2 channels
Channel positions : Front: L R
Sampling rate : 48.0 KHz
Bit depth : 16 bits
Compression mode : Lossy
Stream size : 123 MiB (9%)
Alignment : Split accross interleaves
Interleave, duration : 42 ms (1.00 video frame)
Interleave, preload duration : 500 ms
Audio #2
ID : 2
Format : AC-3
Format/Info : Audio Coding 3
Mode extension : CM (complete main)
Format settings, Endianness : Big
Codec ID : 2000
Duration : 1h 29mn
Bit rate mode : Constant
Bit rate : 384 Kbps
Channel(s) : 6 channels
Channel positions : Front: L C R, Side: L R, LFE
Sampling rate : 48.0 KHz
Bit depth : 16 bits
Compression mode : Lossy
Stream size : 246 MiB (18%)
Alignment : Split accross interleaves
Interleave, duration : 42 ms (1.00 video frame)
Interleave, preload duration : 500 ms
Скачать

Скачать торрент!

Как скачивать? · Что такое торрент? · Рейтинг и ограничения

Сайт не распространяет и не хранит электронные версии произведений, а лишь предоставляет доступ к создаваемому пользователями каталогу ссылок на торрент-файлы, которые содержат только списки хеш-сумм

[Профиль] [ЛС]
Показать сообщения:    
Ответить на тему

Текущее время: Сегодня 11:51

Часовой пояс: GMT + 4



Вы не можете начинать темы
Вы не можете отвечать на сообщения
Вы не можете редактировать свои сообщения
Вы не можете удалять свои сообщения
Вы не можете голосовать в опросах
Вы не можете прикреплять файлы к сообщениям
Вы не можете скачивать файлы