Джеймс Понт / Torrente 4 (Сантьяго Сегура / Santiago Segura) [2011, Испания, Боевик, комедия, криминал, HDRip] VO

Ответить на тему
 
Автор Сообщение

user ®

Стаж: 7 лет 7 месяцев

Сообщений: 20008

Пост Пост: #1 от 31-Май-2012 10:19

[Цитировать]

Джеймс Понт / Torrente 4
Страна: Испания, Amiguetes Entertainment S.L., Antena 3 Films, Bowfinger International Pictures, Canal+ Espa
Жанр: Боевик, комедия, криминал
Год выпуска: 2011
Продолжительность: 01:36:35
Перевод: Одноголосый закадровый (Юсупов Вадим)
Cубтитры: нет
Режиссер: Сантьяго Сегура / Santiago Segura
В ролях: Сантьяго Сегура, Карлос Арэсес, Гойо Хименес, Хавьер Гутиеррез, Эрнесто Севилья, Мария Лапьедра, Франциско, Томаш Поцци, Кико Ривера, Долорес Гонзалез, Сильвия Абрил, Хосе Мария Рубио, Энрике Вийен, Дэвид Кастилло
Описание: Похождения любимого народного героя и циничного подонка в одном лице. Как обычно, много простого и понятного юмора ниже пояса, много шуток про медийных персонажей, которые сами охотно снимаются в эпизодах.

Качество видео: HDRip [Исходник: неизвестен]
Формат видео: AVI
Видео: 720x384 (1.88:1), 24 fps, XviD build 50 ~1962 kbps avg, 0.29 bit/pixel
Аудио: 48 kHz, MPEG Layer 3, 2 ch, ~192.00 kbps avg

MediaInfo

General
Complete name : D:\Dzhejms.Pont.2011.XviD.HDRip.avi
Format : AVI
Format/Info : Audio Video Interleave
File size : 1.46 GiB
Duration : 1h 36mn
Overall bit rate : 2 164 Kbps
Writing application : VirtualDubMod 1.5.10.3 | www.virtualdub-fr.org || (build 2550/release)
Writing library : VirtualDubMod build 2550/release
Video
ID : 0
Format : MPEG-4 Visual
Format profile : Advanced Simple@L5
Format settings, BVOP : Yes
Format settings, QPel : No
Format settings, GMC : No warppoints
Format settings, Matrix : Default (MPEG)
Codec ID : XVID
Codec ID/Hint : XviD
Duration : 1h 36mn
Bit rate : 1 963 Kbps
Width : 720 pixels
Height : 384 pixels
Display aspect ratio : 1.875
Frame rate : 24.000 fps
Resolution : 8 bits
Colorimetry : 4:2:0
Scan type : Progressive
Bits/(Pixel*Frame) : 0.296
Stream size : 1.32 GiB (91%)
Writing library : XviD 1.2.1 (UTC 2008-12-04)
Audio
ID : 1
Format : MPEG Audio
Format version : Version 1
Format profile : Layer 3
Mode : Joint stereo
Codec ID : 55
Codec ID/Hint : MP3
Duration : 1h 36mn
Bit rate mode : Constant
Bit rate : 192 Kbps
Channel(s) : 2 channels
Sampling rate : 48.0 KHz
Stream size : 133 MiB (9%)
Alignment : Aligned on interleaves
Interleave, duration : 42 ms (1.00 video frame)
Interleave, preload duration : 504 ms

Скриншот c названием фильма

Скриншоты

Скачать

Скачать торрент!

Как скачивать? · Что такое торрент? · Рейтинг и ограничения

Сайт не распространяет и не хранит электронные версии произведений, а лишь предоставляет доступ к создаваемому пользователями каталогу ссылок на торрент-файлы, которые содержат только списки хеш-сумм

[Профиль] [ЛС]
Показать сообщения:    
Ответить на тему

Текущее время: Сегодня 20:39

Часовой пояс: GMT + 4



Вы не можете начинать темы
Вы не можете отвечать на сообщения
Вы не можете редактировать свои сообщения
Вы не можете удалять свои сообщения
Вы не можете голосовать в опросах
Вы не можете прикреплять файлы к сообщениям
Вы не можете скачивать файлы