Призрачный гонщик 2 / Ghost Rider: Spirit of Vengeance (Марк Невелдайн / Mark Neveldine, Брайан Тейлор / Brian Taylor) [2011 г., фэнтези, боевик, триллер, BDRip-AVC] Dub

Ответить на тему
 
Автор Сообщение

user ®

Стаж: 7 лет 7 месяцев

Сообщений: 20008

Пост Пост: #1 от 31-Май-2012 10:19

[Цитировать]

- Название: Призрачный гонщик 2
Оригинальное название: Ghost Rider: Spirit of Vengeance
Год выпуска: 2011
Страна: США, ОАЭ
Жанр: фэнтези, боевик, триллер
Продолжительность: 01:35:31
Перевод: Профессиональный (полное дублирование) |студия "Пифагор", лицензия|
Субтитры: нет
Режиссер: Марк Невелдайн, Брайан Тейлор
В ролях: Николас Кейдж, Кьяран Хайндс, Виоланте Плачидо, Джонни Витуорт, Кристофер Ламберт, Идрис Эльба, Фергус Риордан, Спенсер Уидлинг, Сорин Тофан, Яцек Коман-Описание: Действие разворачивается на задворках Восточной Европы, где главный герой Джонни Блэйз безуспешно пытается справиться со своим проклятием. Его принимает на работу некая секта, которая пытается заполучить дьявола в тот момент, когда он пытается вселиться в тело его смертного сына на дне рождения мальчика.- | | -Раздача от:
Автор рипа: L
Исходник: Ghost.Rider.Spirit.of.Vengeance.2012.BluRay.1080p.DTS-HD.MA.5.1.AVC.REMUX-FraMeSToR
Качество: BDRip-AVC
Контейнер: MKV
Видео: AVC / High@L4.1 / 1056x440 / 1 799 Kbps / 2.40:1
Аудио:
48 kHz, AC3, 3/2 (L,C,R,l,r) + LFE ch, ~384.00 kbps avg - профессиональный (дублированный)

Скриншоты

- -

Знаете ли вы, что...

• Призрачный Гонщик придуман Роем Томасом, Гэри Фридрихом и Майком Плугом. Персонаж впервые появился в комиксе Marvel Spotlight #5 в 1973 году. Данный фильм не основан на каком-либо определенном сюжете из комиксов.
• Съёмки фильма начались в ноябре 2010 года и проходили в Румынии в городах Бухаресте, Сибиу, Ровинари и Хунедоаре, на озере Видрару, Трансфэгэрашском шоссе и в Замке Корвинов.

MI

Общее
Уникальный идентификатор : 196746826242136073229019632907703267493 (0x94040F772E02379398628D2F19A3B0A5)
Полное имя : D:\L\Prizrachnyj.Gonwik.2.2011.BDRip.x264.ac3.[by.L].mkv
Формат : Matroska
Версия формата : Version 2
Размер файла : 1,45 Гбайт
Продолжительность : 1 ч. 35 м.
Общий поток : 2172 Кбит/сек
Дата кодирования : UTC 2012-05-28 18:40:29
Программа кодирования : mkvmerge v3.2.0 ('Beginnings') built on Feb 12 2010 16:46:17
Библиотека кодирования : libebml v0.7.9 + libmatroska v0.8.1
Видео
Идентификатор : 1
Формат : AVC
Формат/Информация : Advanced Video Codec
Профиль формата : High@L4.1
Параметр CABAC формата : Да
Параметр ReFrames формата : 11 кадров
Идентификатор кодека : V_MPEG4/ISO/AVC
Продолжительность : 1 ч. 35 м.
Битрейт : 1799 Кбит/сек
Ширина : 1056 пикселей
Высота : 440 пикселей
Соотношение сторон : 2,40:1
Частота кадров : 23,976 кадра/сек
Цветовое пространство : YUV
Субдискретизация насыщенности : 4:2:0
Битовая глубина : 8 бит
Тип развёртки : Прогрессивная
Бит/(Пиксели*Кадры) : 0.161
Размер потока : 1,16 Гбайт (80%)
Библиотека кодирования : x264 core 120 r2164 da19765
Настройки программы : cabac=1 / ref=11 / deblock=1:-2:-1 / analyse=0x3:0x113 / me=umh / subme=10 / psy=1 / psy_rd=0.95:0.05 / mixed_ref=1 / me_range=32 / chroma_me=1 / trellis=2 / 8x8dct=1 / cqm=0 / deadzone=21,11 / fast_pskip=0 / chroma_qp_offset=-3 / threads=6 / sliced_threads=0 / nr=0 / decimate=1 / interlaced=0 / bluray_compat=0 / constrained_intra=0 / bframes=8 / b_pyramid=2 / b_adapt=1 / b_bias=0 / direct=1 / weightb=1 / open_gop=0 / weightp=2 / keyint=240 / keyint_min=22 / scenecut=40 / intra_refresh=0 / rc=2pass / mbtree=0 / bitrate=1799 / ratetol=1.0 / qcomp=0.70 / qpmin=10 / qpmax=61 / qpstep=4 / cplxblur=20.0 / qblur=0.5 / ip_ratio=1.40 / pb_ratio=1.30 / aq=2:0.70
Язык : English
Default : Нет
Forced : Нет
Аудио
Идентификатор : 2
Формат : AC-3
Формат/Информация : Audio Coding 3
Расширение режима : CM (complete main)
Идентификатор кодека : A_AC3
Продолжительность : 1 ч. 35 м.
Вид битрейта : Постоянный
Битрейт : 384 Кбит/сек
Каналы : 6 каналов
Расположение каналов : Front: L C R, Side: L R, LFE
Частота : 48,0 КГц
Битовая глубина : 16 бит
Метод сжатия : С потерями
Размер потока : 262 Мбайт (18%)
Заголовок : Дубляж
Язык : Russian
Default : Да
Forced : Нет
-
Скачать

Скачать торрент!

Как скачивать? · Что такое торрент? · Рейтинг и ограничения

Сайт не распространяет и не хранит электронные версии произведений, а лишь предоставляет доступ к создаваемому пользователями каталогу ссылок на торрент-файлы, которые содержат только списки хеш-сумм

[Профиль] [ЛС]
Показать сообщения:    
Ответить на тему

Текущее время: Сегодня 00:23

Часовой пояс: GMT + 4



Вы не можете начинать темы
Вы не можете отвечать на сообщения
Вы не можете редактировать свои сообщения
Вы не можете удалять свои сообщения
Вы не можете голосовать в опросах
Вы не можете прикреплять файлы к сообщениям
Вы не можете скачивать файлы