Боже, Благослови Америку / God Bless America (Боб Голдтуэйт / Bobcat Goldthwait) [2011, США, триллер, чёрная комедия, криминал, социальная драм, HDTVRip] DVO Sub Rus + Original Eng

Ответить на тему
 
Автор Сообщение

user ®

Стаж: 7 лет 7 месяцев

Сообщений: 20008

Пост Пост: #1 от 31-Май-2012 10:19

[Цитировать]

Боже, Благослови Америку / God Bless America Страна: США
Жанр: триллер, чёрная комедия, криминал, социальная драма
Год выпуска: 2011
Продолжительность: 01:44:24
Перевод: Профессиональный (двухголосый закадровый) Ozz.Tv
Cубтитры: русские
Оригинальная аудиодорожка: английский
Режиссер: Боб Голдтуэйт / Bobcat Goldthwait
В ролях: Джоэль Мюррей, Тара Барр, Маккензи Брук Смит, Мелинда Пейдж Хэмилтон, Рич МакДональд, Андреа Харпер, Дэвид Менденхолл, Джулиана Акоста и др.
Описание: Фрэнк просто выдохся: сосед-невежа, постоянный плач ребенка, глупая болтовня коллег, и в довершение всего ещё и опухоль мозга. Достав пистолет, уставший от жизни герой находит для себя неожиданного друга и союзника по имени Рокси. Это девушка-студентка, проявляющая нетерпимость к идиотам вокруг и мыслящая в точности, как и Фрэнк. Он даёт ей уроки стрельбы, а она ему цели, которые нужно поразить.


Доп. информация: Лицам до 16 не рекомендуется, присутствует ненормативная лексика... и сцены насилия...
Мнение: Фильм снят по одноименному роману, в его основу легли реальные события, случившиеся под композицию с довольно символичным названием - "Реквием по Башне".

Качество видео: HDTVRip
Формат видео: AVI
Видео: XviD, 720x304, (2,35:1), в 23, 976 кадра/сек, 1455 Кбит/сек
Аудио 1: MP3, 41,1 КГц, 160 Кбит/сек, 2 канала
Аудио 2: AC-3, 48,0 КГц, 384 Кбит/сек, 6 каналов
Формат субтитров: softsub (SRT)

MediaInfo

Видео
Идентификатор                            : 0
Формат                                   : MPEG-4 Visual
Профиль формата                          : Advanced Simple@L5
Параметр BVOP формата                    : 2
Параметр QPel формата                    : Нет
Параметр GMC формата                     : Без точки перехода
Параметр матрицы формата                 : Default (MPEG)
Идентификатор кодека                     : XVID
Идентификатор кодека/Подсказка           : XviD
Продолжительность                        : 1 ч. 44 м.
Битрейт                                  : 1455 Кбит/сек
Ширина                                   : 720 пикселей
Высота                                   : 304 пикселя
Соотношение сторон                       : 2,35:1
Частота кадров                           : 23,976 кадра/сек
Цветовое пространство                    : YUV
Субдискретизация насыщенности            : 4:2:0
Битовая глубина                          : 8 бит
Тип развёртки                            : Прогрессивная
Метод сжатия                             : С потерями
Бит/(Пиксели*Кадры)                      : 0.277
Размер потока                            : 1,06 Гбайт (72%)
Библиотека кодирования                   : XviD 64
Аудио #1
Идентификатор                            : 1
Формат                                   : MPEG Audio
Версия формата                           : Version 1
Профиль формата                          : Layer 3
Режим                                    : Joint stereo
Расширение режима                        : MS Stereo
Идентификатор кодека                     : 55
Идентификатор кодека/Подсказка           : MP3
Продолжительность                        : 1 ч. 44 м.
Вид битрейта                             : Постоянный
Битрейт                                  : 160 Кбит/сек
Каналы                                   : 2 канала
Частота                                  : 44,1 КГц
Метод сжатия                             : С потерями
Размер потока                            : 119 Мбайт (8%)
Выравнивание                             : Соединение по промежуткам
Продолжительность промежутка             : 167  мс. (4,00 видеокадра)
Время предзагрузки промежутка            : 208  мс.
Заголовок                                : God.Bless.America.2011.HDTVRiP720 - [2] Russian
Библиотека кодирования                   : LAME3.99r
Настройки программы                      : -m j -V 4 -q 2 -lowpass 17.5 -b 160

Скриншот c названием фильма

Скриншоты

Скачать

Скачать торрент!

Как скачивать? · Что такое торрент? · Рейтинг и ограничения

Сайт не распространяет и не хранит электронные версии произведений, а лишь предоставляет доступ к создаваемому пользователями каталогу ссылок на торрент-файлы, которые содержат только списки хеш-сумм

[Профиль] [ЛС]

otzhig

Пол:

Стаж: 5 лет 8 месяцев

Сообщений: 38

Пост Пост: #2 от 15-Июн-2012 15:59 (спустя 15 дней)

[Цитировать]

не видел, качну. поддержу раздачу.

_________________
[Профиль] [ЛС]
Показать сообщения:    
Ответить на тему

Текущее время: Сегодня 15:50

Часовой пояс: GMT + 4



Вы не можете начинать темы
Вы не можете отвечать на сообщения
Вы не можете редактировать свои сообщения
Вы не можете удалять свои сообщения
Вы не можете голосовать в опросах
Вы не можете прикреплять файлы к сообщениям
Вы не можете скачивать файлы