Мой придурочный брат / Our Idiot Brother (Джесси Перетц / Jesse Peretz) [2011, США, Big Beach Films, Комедия, HDRip] DVO OzzTV

Ответить на тему
 
Автор Сообщение

user ®

Стаж: 7 лет 7 месяцев

Сообщений: 20008

Пост Пост: #1 от 31-Май-2012 10:19

[Цитировать]

Мой придурочный брат / Our Idiot Brother
Страна: США, Big Beach Films
Жанр: Комедия
Год выпуска: 2011
Продолжительность: 01:29:51
Перевод: Профессиональный (двухголосый закадровый) Доп. инфо о переводе OzzTV
Cубтитры: нет
Режиссер: Джесси Перетц / Jesse Peretz
В ролях: Пол Радд, Элизабет Бэнкс, Ник Салливан, Зои Дешанель, Франческа Папалиа
Описание: У него всего четыре проблемы, это три сестры с завышенным самомнением и мать, которая всегда врывается в гости к детишкам без приглашения. Но мама, видимо, знает что делает, так как её визиты приносят оптимистичный настрой и свежую струю в жизни трёх сестёр. Но есть и оборотная сторона родительского внимания это жуткий кавардак

Сэмпл: http://multi-up.com/649825
Качество видео: HDRip (источник неизвестен)
Формат видео: AVI
Видео: XviD, 1793 Kbps, 720x400 ,23,976 кадра/сек
Аудио: AC3, 48,0 КГц, 384 kb/s, (6 ch)

Mediainfo

Общее
Полное имя : F:\Moj.priduroshnyj.brat.2011.HDRip.avi
Формат : AVI
Формат/Информация : Audio Video Interleave
Размер файла : 1,38 Гбайт
Продолжительность : 1 ч. 29 м.
Общий поток : 2193 Кбит/сек
Программа кодирования : VirtualDubMod 1.5.10.2 (build 2540/release)
Библиотека кодирования : VirtualDubMod build 2540/release
Видео
Идентификатор : 0
Формат : MPEG-4 Visual
Профиль формата : Advanced Simple@L5
Параметр BVOP формата : 1
Параметр QPel формата : Да
Параметр GMC формата : Без точки перехода
Параметр матрицы формата : Default (H.263)
Режим смешивания : Сжатый битовый поток
Идентификатор кодека : XVID
Идентификатор кодека/Подсказка : XviD
Продолжительность : 1 ч. 29 м.
Битрейт : 1800 Кбит/сек
Ширина : 720 пикселей
Высота : 400 пикселей
Соотношение сторон : 16:9
Частота кадров : 23,976 кадра/сек
Цветовое пространство : YUV
Субдискретизация насыщенности : 4:2:0
Битовая глубина : 8 бит
Тип развёртки : Прогрессивная
Метод сжатия : С потерями
Бит/(Пиксели*Кадры) : 0.261
Размер потока : 1,13 Гбайт (82%)
Библиотека кодирования : XviD 1.2.1 (UTC 2008-12-04)
Аудио
Идентификатор : 1
Формат : AC-3
Формат/Информация : Audio Coding 3
Расширение режима : CM (complete main)
Идентификатор кодека : 2000
Продолжительность : 1 ч. 29 м.
Вид битрейта : Постоянный
Битрейт : 384 Кбит/сек
Каналы : 6 каналов
Расположение каналов : Front: L C R, Side: L R, LFE
Частота : 48,0 КГц
Битовая глубина : 16 бит
Метод сжатия : С потерями
Размер потока : 247 Мбайт (18%)
Выравнивание : Разделение по промежуткам
Продолжительность промежутка : 42 мс. (1,00 видеокадр)
Время предзагрузки промежутка : 500 мс.

Скриншот с названием

Скриншоты

Скачать

Скачать торрент!

Как скачивать? · Что такое торрент? · Рейтинг и ограничения

Сайт не распространяет и не хранит электронные версии произведений, а лишь предоставляет доступ к создаваемому пользователями каталогу ссылок на торрент-файлы, которые содержат только списки хеш-сумм

[Профиль] [ЛС]
Показать сообщения:    
Ответить на тему

Текущее время: Сегодня 15:52

Часовой пояс: GMT + 4



Вы не можете начинать темы
Вы не можете отвечать на сообщения
Вы не можете редактировать свои сообщения
Вы не можете удалять свои сообщения
Вы не можете голосовать в опросах
Вы не можете прикреплять файлы к сообщениям
Вы не можете скачивать файлы