Защитник / Safe (Боаз Якин / Boaz Yakin) [2012, США, боевик, криминал, BDRip] DUB

Ответить на тему
 
Автор Сообщение

user ®

Стаж: 7 лет 7 месяцев

Сообщений: 20008

Пост Пост: #1 от 31-Май-2012 10:19

[Цитировать]

Защитник / Safe«Он - её единственный шанс. Она - его последняя надежда.»- Страна: США
Жанр: боевик, криминал
Год выпуска: 2012
Продолжительность: 01:34:08
Перевод: Профессиональный (полное дублирование) - Лицензия
Субтитры: нет
Режиссер: Боаз Якин / Boaz Yakin
В ролях: Джейсон Стэйтем, Катрин Чан, Роберт Джон Бёрк, Джеймс Хонг, Энсон Маунт, Крис Сарандон, Сандор Текси, Джозеф Сикора, Игорь Жижикин, Регги Ли...
Описание: Бывший агент элитных спецслужб спасает девочку с уникальными способностями из цепких лап Нью-Йоркской мафии. Она — единственная, кто знает код от сейфа, где хранятся миллионы долларов китайских Триад. И теперь только профессионал может защитить ее от мафии, азиатских ассасинов и коррумпированных полицейских. На улицах Нью-Йорка развернется погоня за девочкой, которой очень повезло с Защитником…- - Исходник: Blu-ray 1080p
Качество видео:BDRip
Формат видео: AVI
Видео: 720x304 (2.35:1), 24 fps, XviD ~ 1758 kbps avg, 0.335 bit/pixel
Аудио: 48 kHz, AC3 Dolby Digital, 3/2 (L,C,R,l,r) + LFE ch, 448 kbps Conct

MediaInfo

Общее
Полное имя : Zashitnik.2012.D.BDRip.avi
Формат : AVI
Формат/Информация : Audio Video Interleave
Размер файла : 1,46 Гбайт
Продолжительность : 1 ч. 34 м.
Общий поток : 2216 Кбит/сек
Программа кодирования : VirtualDubMod 1.5.10.3 (build 2550/release)
Библиотека кодирования : VirtualDubMod build 2550/release
Видео
Идентификатор : 0
Формат : MPEG-4 Visual
Профиль формата : Advanced Simple@L5
Параметр BVOP формата : 1
Параметр QPel формата : Нет
Параметр GMC формата : Без точки перехода
Параметр матрицы формата : Выборочная
Идентификатор кодека : XVID
Идентификатор кодека/Подсказка : XviD
Продолжительность : 1 ч. 34 м.
Битрейт : 1758 Кбит/сек
Ширина : 720 пикселей
Высота : 304 пикселя
Соотношение сторон : 2,35:1
Частота кадров : 24,000 кадра/сек
Цветовое пространство : YUV
Субдискретизация насыщенности : 4:2:0
Битовая глубина : 8 бит
Тип развёртки : Прогрессивная
Метод сжатия : С потерями
Бит/(Пиксели*Кадры) : 0.335
Размер потока : 1,16 Гбайт (79%)
Библиотека кодирования : XviD 64
Аудио
Идентификатор : 1
Формат : AC-3
Формат/Информация : Audio Coding 3
Расширение режима : CM (complete main)
Параметр Endianness формата : Big
Идентификатор кодека : 2000
Продолжительность : 1 ч. 34 м.
Вид битрейта : Постоянный
Битрейт : 448 Кбит/сек
Каналы : 6 каналов
Расположение каналов : Front: L C R, Side: L R, LFE
Частота : 48,0 КГц
Битовая глубина : 16 бит
Метод сжатия : С потерями
Размер потока : 302 Мбайт (20%)
Выравнивание : Разделение по промежуткам
Продолжительность промежутка : 42 мс. (1,00 видеокадр)
Время предзагрузки промежутка : 500 мс.

Скриншоты

Обложка и блин 600dpi

http://multi-up.com/710381
Скачать

Скачать торрент!

Как скачивать? · Что такое торрент? · Рейтинг и ограничения

Сайт не распространяет и не хранит электронные версии произведений, а лишь предоставляет доступ к создаваемому пользователями каталогу ссылок на торрент-файлы, которые содержат только списки хеш-сумм

[Профиль] [ЛС]
Показать сообщения:    
Ответить на тему

Текущее время: Сегодня 15:53

Часовой пояс: GMT + 4



Вы не можете начинать темы
Вы не можете отвечать на сообщения
Вы не можете редактировать свои сообщения
Вы не можете удалять свои сообщения
Вы не можете голосовать в опросах
Вы не можете прикреплять файлы к сообщениям
Вы не можете скачивать файлы